Subcategories

Pelican - What We All Come To Need (2009) [2CD Japanese Edition] (Repost)

Posted By: gribovar
Pelican - What We All Come To Need (2009) [2CD Japanese Edition] (Repost)

Pelican - What We All Come To Need (2009) [2CD Japanese Edition]
EAC Rip | FLAC (image+.cue+log) - 511 MB | MP3 CBR 320 kbps (LAME 3.93) - 170 MB | Covers - 124 MB
Genre: Post-Metal | RAR 3% Rec. | Label: Daymare Recordings (DYMC-104)

Never content to remain stagnant over the course of their almost decade long career, 2009 finds Pelican has shifted gears once again. This year sees them on a new label, Southern Lord, and presenting a brand new full length. "What We All Come To Need" is Pelican through and through and the apex of their creative aspirations. It is the album that straddles most confidently the fine line between adherence to roots and the mining of the unexplored. Recorded with Chris Common, who has helmed records for a variety of bands, from Minus The Bear to These Arms Are Snakes, "What We All Come To Need" is as punishing as it is calming. This is Pelican at their most inspired and sonically adept, delivering 50 minutes of weighty riffs and textured progressions in momentous succession. This isn t maturation as much as it is confidence and purpose, and the latter are stamped on every note. Greg Anderson (sunnO)))), Aaron Turner (Isis), Allen Epley (Shiner, Life And Times), as well as Ben Verellen (Helms Alee) guested, lending the record organic diversity.

CD 1 Tracklist:
01. Glimmer
02. The Creeper
03. Ephemeral
04. Specks Of Light
05. Strung Up From The Sky
06. An Inch Above Sand
07. What We All Come To Need
08. Final Breath

Total time: 51:32

CD 2 Tracklist:
01. Embedding the Moss
02. Ephemeral
03. Geometry of Murder

Total time: 20:48

Exact Audio Copy V1.0 beta 3 from 29. August 2011

EAC extraction logfile from 8. December 2011, 20:05

Pelican / What We All Come To Need (DYMC-104A)

Used drive : ASUS DRW-24B1ST Adapter: 3 ID: 0

Read mode : Secure
Utilize accurate stream : Yes
Defeat audio cache : Yes
Make use of C2 pointers : No

Read offset correction : 6
Overread into Lead-In and Lead-Out : No
Fill up missing offset samples with silence : Yes
Delete leading and trailing silent blocks : No
Null samples used in CRC calculations : Yes
Used interface : Native Win32 interface for Win NT & 2000

Used output format : User Defined Encoder
Selected bitrate : 128 kBit/s
Quality : High
Add ID3 tag : No
Command line compressor : C:\Program Files (x86)\Exact Audio Copy\Flac\flac.exe
Additional command line options : -V -8 -T "Date=%year%" -T "Genre=%genre%" %source%


TOC of the extracted CD

Track | Start | Length | Start sector | End sector
––––––––––––––––––––––––––––-
1 | 0:00.00 | 7:31.22 | 0 | 33846
2 | 7:31.22 | 7:20.47 | 33847 | 66893
3 | 14:51.69 | 5:09.44 | 66894 | 90112
4 | 20:01.38 | 7:46.10 | 90113 | 125072
5 | 27:47.48 | 5:12.48 | 125073 | 148520
6 | 33:00.21 | 4:14.45 | 148521 | 167615
7 | 37:14.66 | 6:47.65 | 167616 | 198205
8 | 44:02.56 | 7:29.09 | 198206 | 231889


Range status and errors

Selected range

Filename Z:\Pelican - What We All Come To Need (DYMC-104A).wav

Peak level 100.0 %
Extraction speed 5.6 X
Range quality 100.0 %
Test CRC 203AE787
Copy CRC 203AE787
Copy OK

No errors occurred


AccurateRip summary

Track 1 not present in database
Track 2 not present in database
Track 3 not present in database
Track 4 not present in database
Track 5 not present in database
Track 6 not present in database
Track 7 not present in database
Track 8 not present in database

None of the tracks are present in the AccurateRip database

End of status report

–– CUETools DB Plugin V2.1.3

[CTDB TOCID: c3u9.NtReA6KzQD.F0JbNjKsd4E-] disk not present in database, Submit result: c3u9.NtReA6KzQD.F0JbNjKsd4E- has been uploaded


==== Log checksum DBC11360E1317FDB3B585B25475B1CDD0E78C20D9D7F39B269735E1E1C378ECE ====

[CUETools log; Date: 22.02.2018 11:42:45; Version: 2.1.4]
[CTDB TOCID: c3u9.NtReA6KzQD.F0JbNjKsd4E-] found.
Track | CTDB Status
1 | (6/6) Accurately ripped
2 | (6/6) Accurately ripped
3 | (6/6) Accurately ripped
4 | (6/6) Accurately ripped
5 | (6/6) Accurately ripped
6 | (6/6) Accurately ripped
7 | (6/6) Accurately ripped
8 | (6/6) Accurately ripped
[AccurateRip ID: 00103510-006aadba-6f0c1308] found.
Track [ CRC | V2 ] Status
01 [cfd654b3|6eee32d2] (0+4/4) Accurately ripped
02 [7f6e2fc3|a65c9c2e] (0+4/4) Accurately ripped
03 [1f2fddfe|77abbfd8] (0+4/4) Accurately ripped
04 [fa9b72c0|326ad64b] (0+4/4) Accurately ripped
05 [8f6071ec|8d7e4351] (0+4/4) Accurately ripped
06 [ff61f38f|fc8bdee6] (0+4/4) Accurately ripped
07 [38789bdd|96505fce] (0+4/4) Accurately ripped
08 [42b9499a|3f94f994] (0+4/4) Accurately ripped

Track Peak [ CRC32 ] [W/O NULL] [ LOG ]
– 100,0 [203AE787] [10B0216B] CRC32
01 100,0 [0C76C316] [C4C810C1]
02 100,0 [29E33C7E] [4661BE5D]
03 100,0 [DD57C0E0] [8935784C]
04 100,0 [594A9113] [7E11A22C]
05 100,0 [8D101AAF] [80C75ABD]
06 100,0 [943D17B7] [4FA2EF5E]
07 100,0 [94FD48D4] [613D21E2]
08 100,0 [3D318989] [C246A9F1]

Exact Audio Copy V1.0 beta 3 from 29. August 2011

EAC extraction logfile from 8. December 2011, 20:28

Pelican / Ephemeral EP (DYMC-104B)

Used drive : ASUS DRW-24B1ST Adapter: 3 ID: 0

Read mode : Secure
Utilize accurate stream : Yes
Defeat audio cache : Yes
Make use of C2 pointers : No

Read offset correction : 6
Overread into Lead-In and Lead-Out : No
Fill up missing offset samples with silence : Yes
Delete leading and trailing silent blocks : No
Null samples used in CRC calculations : Yes
Used interface : Native Win32 interface for Win NT & 2000

Used output format : User Defined Encoder
Selected bitrate : 128 kBit/s
Quality : High
Add ID3 tag : No
Command line compressor : C:\Program Files (x86)\Exact Audio Copy\Flac\flac.exe
Additional command line options : -V -8 -T "Date=%year%" -T "Genre=%genre%" %source%


TOC of the extracted CD

Track | Start | Length | Start sector | End sector
––––––––––––––––––––––––––––-
1 | 0:00.00 | 7:45.49 | 0 | 34923
2 | 7:45.49 | 5:24.48 | 34924 | 59271
3 | 13:10.22 | 7:37.59 | 59272 | 93605


Range status and errors

Selected range

Filename Z:\Pelican - Ephemeral EP (DYMC-104B).wav

Peak level 100.0 %
Extraction speed 2.4 X
Range quality 100.0 %
Test CRC BB76F86A
Copy CRC BB76F86A
Copy OK

No errors occurred


AccurateRip summary

Track 1 not present in database
Track 2 not present in database
Track 3 not present in database

None of the tracks are present in the AccurateRip database

End of status report

–– CUETools DB Plugin V2.1.3

[CTDB TOCID: iXGt_rwwHw9NIbrYqI3DTKRC0bo-] disk not present in database, Submit result: iXGt_rwwHw9NIbrYqI3DTKRC0bo- has been uploaded


==== Log checksum DA85EF656B49ABF29408075144FAC6FC5E060A5FDD26312D52980F8F404CB3E0 ====

[CUETools log; Date: 22.02.2018 11:44:41; Version: 2.1.4]
[CTDB TOCID: iXGt_rwwHw9NIbrYqI3DTKRC0bo-] found.
Track | CTDB Status
1 | (6/6) Accurately ripped
2 | (6/6) Accurately ripped
3 | (6/6) Accurately ripped
[AccurateRip ID: 0002dd9a-00097e09-2504e003] found.
Track [ CRC | V2 ] Status
01 [ea9a2526|d4770eab] (0+4/4) Accurately ripped
02 [177caa96|ee06248d] (0+4/4) Accurately ripped
03 [5d5c44f8|d83604fa] (0+4/4) Accurately ripped

Track Peak [ CRC32 ] [W/O NULL] [ LOG ]
– 100,0 [BB76F86A] [9B11E61E] CRC32
01 100,0 [214C5C21] [7928E565]
02 100,0 [D0566A2D] [19486C91]
03 100,0 [3622B1FC] [CE45498A]

Thanks to Misantrop