Tags
Language
Tags

Pepper Adams - Pepper [Recorded 1975-1986] (1996)

Posted By: gribovar
Pepper Adams - Pepper [Recorded 1975-1986] (1996)

Pepper Adams - Pepper [Recorded 1975-1986] (1996)
EAC Rip | FLAC (image+.cue+log) - 286 MB | Covers - 30 MB
Genre: Jazz | RAR 3% Rec. | Label: Enja (ENJ-9079 2)

This CD reissue has the four songs recorded by baritone great Pepper Adams for an obscure 1975 Enja quartet LP with pianist Walter Norris, bassist George Mraz and drummer Makaya Ntshoko plus one number apiece from Adams' two Justin Time albums with Denny Christianson's big band in 1986. Although Pepper was seriously ill by the mid-'80s, he plays quite well on his features with the orchestra ("Osage Autumn" and "My Funny Valentine"). However, it is for his numbers with Norris (two originals, "A Child Is Born" and a powerful version of "Well You Needn't") that this fine hard bop-oriented CD is most highly recommended.
Tracklist:
01. Twelfth & Pingree
02. A Child Is Born
03. Well, You Needn't
04. Bossa Nouveau
05. Osage Autumn
06. My Funny Valentine

Total time: 48:20

Exact Audio Copy V0.99 prebeta 4 from 23. January 2008

EAC extraction logfile from 21. May 2009, 7:06

Pepper Adams / Pepper

Used drive : PIONEER DVD-RW DVR-112D Adapter: 0 ID: 0

Read mode : Secure
Utilize accurate stream : Yes
Defeat audio cache : Yes
Make use of C2 pointers : No

Read offset correction : 48
Overread into Lead-In and Lead-Out : No
Fill up missing offset samples with silence : Yes
Delete leading and trailing silent blocks : No
Null samples used in CRC calculations : Yes
Used interface : Installed external ASPI interface

Used output format : User Defined Encoder
Selected bitrate : 320 kBit/s
Quality : High
Add ID3 tag : Yes
Command line compressor : C:\Program Files\Exact Audio Copy\Flac\flac.exe
Additional command line options : -V -8 -T "artist=%a" -T "title=%t" -T "album=%g" -T "date=%y" -T "tracknumber=%n" -T "genre=%m" %s


TOC of the extracted CD

Track | Start | Length | Start sector | End sector
––––––––––––––––––––––––––––-
1 | 0:00.00 | 9:39.37 | 0 | 43461
2 | 9:39.37 | 8:16.08 | 43462 | 80669
3 | 17:55.45 | 8:57.60 | 80670 | 121004
4 | 26:53.30 | 9:31.57 | 121005 | 163886
5 | 36:25.12 | 6:41.65 | 163887 | 194026
6 | 43:07.02 | 5:12.68 | 194027 | 217494


Range status and errors

Selected range

Filename D:\music\rip\Big Joe Patton - Let 'Em Roll & Got A Good Thing Goin' (2in1) (2002, Russia)\Pepper Adams - Pepper.wav

Peak level 85.9 %
Range quality 99.9 %
Test CRC 94AE1088
Copy CRC 94AE1088
Copy OK

No errors occurred


AccurateRip summary

Track 1 not present in database
Track 2 not present in database
Track 3 not present in database
Track 4 not present in database
Track 5 not present in database
Track 6 not present in database

None of the tracks are present in the AccurateRip database

End of status report

[CUETools log; Date: 17.09.2019 14:41:37; Version: 2.1.4]
[CTDB TOCID: jscVL5jbGMd0qPTWSfzCBCJprcw-] found.
Track | CTDB Status
1 | (2/2) Accurately ripped
2 | (2/2) Accurately ripped
3 | (2/2) Accurately ripped
4 | (2/2) Accurately ripped
5 | (2/2) Accurately ripped
6 | (2/2) Accurately ripped
[AccurateRip ID: 000c8542-0041e729-560b5306] found.
Track [ CRC | V2 ] Status
01 [b04373fb|9150e854] (0+2/2) Accurately ripped
02 [a556da62|61781263] (0+2/2) Accurately ripped
03 [937c0078|9af49764] (0+2/2) Accurately ripped
04 [409335fe|ef63b340] (0+2/2) Accurately ripped
05 [b7cdf849|2c9f2f1c] (0+2/2) Accurately ripped
06 [71fb20a7|e589a6c8] (1+1/3) Accurately ripped

Track Peak [ CRC32 ] [W/O NULL] [ LOG ]
– 85,9 [94AE1088] [5228137A] CRC32
01 85,2 [4DB17DF2] [9EEB4AB2]
02 75,8 [0B79507E] [E33DF3E8]
03 85,9 [00A7CACB] [C000B4C8]
04 82,8 [EE2ACBB4] [F35A2CE0]
05 82,8 [D9094731] [3B9962A9]
06 85,9 [E5D5BD0E] [3A2E7543]

Thanks to Musicgate