Subcategories

Peter Cetera - Another Perfect World (2001) [Japanese Ed.] Repost

Posted By: Andi_Deris
Peter Cetera - Another Perfect World (2001) [Japanese Ed.] Repost

Peter Cetera - Another Perfect World (2001) [Japanese Ed.]
EAC Rip | FLAC: Image+Cue+Log | 365 Mb | MP3 CBR 320 kbps | 137 Mb | Scans | 89 Mb | Time: 46:34
Victor Entertainment, Inc. | VICP-61377
Pop Rock, Soft Rock

Another Perfect World (2001) is the seventh solo album by music artist Peter Cetera and his sixth since leaving the group Chicago. The track, "Perfect World" peaked at number 21 on the Adult Contemporary chart. Perhaps one of the most notable songs on the album is Cetera's remake of the Lennon-McCartney penned "It's Only Love."

Peter Cetera - Another Perfect World (2001) [Japanese Ed.] Repost




Track Listing

01. Perfect World (05:01)
02. Rain Love (04:04)
03. Just Like Love (03:39)
04. Feels Like Rain (04:44)
05. I'm Coming Home (04:20)
06. It's Only Love (03:29)
07. Rule The World (05:08)
08. Have A Little Faith (05:46)
09. Only Heaven Knows (05:39)
10. Whatever Gets You Through (04:45)

Produced by Michael Omartian and Peter Cetera

Exact Audio Copy V1.0 beta 3 from 29. August 2011

EAC extraction logfile from 24. May 2013, 17:54

Peter Cetera / Another Perfect World

Used drive : PIONEER DVD-RW DVR-112D Adapter: 2 ID: 1

Read mode : Secure
Utilize accurate stream : Yes
Defeat audio cache : Yes
Make use of C2 pointers : No

Read offset correction : 48
Overread into Lead-In and Lead-Out : No
Fill up missing offset samples with silence : Yes
Delete leading and trailing silent blocks : No
Null samples used in CRC calculations : Yes
Used interface : Installed external ASPI interface

Used output format : User Defined Encoder
Selected bitrate : 1024 kBit/s
Quality : High
Add ID3 tag : No
Command line compressor : C:\Program Files (x86)\Exact Audio Copy\Flac\flac.exe
Additional command line options : -8 -V -T "Date=%year%" -T "Genre=%genre%" -T "COMMENT=ripped by bvstudio®" %source%


TOC of the extracted CD

Track | Start | Length | Start sector | End sector
––––––––––––––––––––––––––––-
1 | 0:00.00 | 5:00.60 | 0 | 22559
2 | 5:00.60 | 4:03.50 | 22560 | 40834
3 | 9:04.35 | 3:38.35 | 40835 | 57219
4 | 12:42.70 | 4:43.52 | 57220 | 78496
5 | 17:26.47 | 4:19.68 | 78497 | 97989
6 | 21:46.40 | 3:28.45 | 97990 | 113634
7 | 25:15.10 | 5:08.10 | 113635 | 136744
8 | 30:23.20 | 5:45.45 | 136745 | 162664
9 | 36:08.65 | 5:38.65 | 162665 | 188079
10 | 41:47.55 | 4:45.15 | 188080 | 209469


Range status and errors

Selected range

Filename F:\Peter Cetera - Another Perfect World - 2001 (Japan)\Peter Cetera - Another Perfect World.wav

Peak level 99.9 %
Extraction speed 6.8 X
Range quality 100.0 %
Test CRC AD68471A
Copy CRC AD68471A
Copy OK

No errors occurred


AccurateRip summary

Track 1 not present in database
Track 2 not present in database
Track 3 not present in database
Track 4 not present in database
Track 5 not present in database
Track 6 not present in database
Track 7 not present in database
Track 8 not present in database
Track 9 not present in database
Track 10 not present in database

None of the tracks are present in the AccurateRip database

End of status report

–– CUETools DB Plugin V2.1.5

[CTDB TOCID: vSPpvTiYFjB_vQd3ewxJzte3dkA-] disk not present in database
Submit result: vSPpvTiYFjB_vQd3ewxJzte3dkA- has been uploaded


==== Log checksum 7AAFF1D42FB13672D2CE3FB108508F9ACA60036DCA8569910CF7AA10BE4A1508 ====


Many thanks to the original uploader: bvstudio