Subcategories

Peter Gabriel - SW Live EP

Posted By: SteveJobs
Peter Gabriel - SW Live EP

Peter Gabriel - SW Live EP (1994)
XLD Rip | Flac (Tracks-4) Cue, Log, m3u, md5, st5, ffp | complete Artwork 300 dpi | 217 MB
Rock | 1994 | Virgin Records, Real World Records | 7243 8 92582 2 6, PGSCDF 11

'Red Rain' and 'Come Talk to Me' are the versions from 'Secret World Live', but the real prize here are the live versions of 'San Jacinto' and 'Mercy Street'.
The latter is here reinvented into a long, hypnotic groove, gradually building to a climax resembling nothing so much as the self-titled track from his 'Passion' album, with an extremely expressive and uninhibited vocal performance from Gabriel. A great live EP, if you can find it.

morningside, rateyourmusic.com



Peter Gabriel - SW Live EP

Tracklisting:
1. Red Rain 6:12
2. Come Talk To Me 6:09
3. San Jacinto 8:23
4. Mercy Street 9:16

recorded at Palasport Nouvo, Modena, Italy, 16-17, 11 1993




X Lossless Decoder version 20080926 (93.3)

XLD extraction logfile from 2008-12-28 19:41:19 +0100

Peter Gabriel / SW Live EP

Used drive : PIONEER DVD-RW DVR-115D (revision 1.06)

Use cdparanoia mode : YES (CDParanoia III 10.2 engine)
Disable audio cache : OK for the drive with cache less than 2750KB
Make use of C2 pointers : NO
Read offset correction : 48
Max retry count : 100

TOC of the extracted CD
Track | Start | Length | Start sector | End sector
––––––––––––––––––––––––––––-
1 | 00:00:00 | 06:12:35 | 0 | 27934
2 | 06:12:35 | 06:09:40 | 27935 | 55649
3 | 12:22:00 | 08:23:00 | 55650 | 93374
4 | 20:45:00 | 09:16:00 | 93375 | 135074


All Tracks
Album gain : -5.84 dB
Peak : 0.992188
Track 01
Filename : /Volumes/Nebucadnezzar 01/00 Music rip and upload/Peter Gabriel - SW Live EP (1994) [FLAC]/01 - Red Rain.flac

Track gain : -5.59 dB
Peak : 0.953888
CRC32 hash (test run) : 4890F1EE
CRC32 hash : 4890F1EE
CRC32 hash (skip zero) : 7DD8F92A
AccurateRip signature : 4517F234
->Accurately ripped! (confidence 6)
Statistics
Read error : 0
Skipped (treated as error) : 0
Edge jitter error (maybe fixed) : 0
Atom jitter error (maybe fixed) : 0
Drift error (maybe fixed) : 0
Dropped bytes error (maybe fixed) : 0
Duplicated bytes error (maybe fixed) : 0
Inconsistency in error sectors : 0

Track 02
Filename : /Volumes/Nebucadnezzar 01/00 Music rip and upload/Peter Gabriel - SW Live EP (1994) [FLAC]/02 - Come Talk To Me.flac

Track gain : -6.03 dB
Peak : 0.953888
CRC32 hash (test run) : 1D36C916
CRC32 hash : 1D36C916
CRC32 hash (skip zero) : 8C16EF7F
AccurateRip signature : DEAFCD64
->Accurately ripped! (confidence 5)
Statistics
Read error : 0
Skipped (treated as error) : 0
Edge jitter error (maybe fixed) : 0
Atom jitter error (maybe fixed) : 0
Drift error (maybe fixed) : 0
Dropped bytes error (maybe fixed) : 0
Duplicated bytes error (maybe fixed) : 0
Inconsistency in error sectors : 0

Track 03
Filename : /Volumes/Nebucadnezzar 01/00 Music rip and upload/Peter Gabriel - SW Live EP (1994) [FLAC]/03 - San Jacinto.flac

Track gain : -2.43 dB
Peak : 0.992188
CRC32 hash (test run) : 306ED09C
CRC32 hash : 306ED09C
CRC32 hash (skip zero) : E1F44788
AccurateRip signature : 4FD907D0
->Accurately ripped! (confidence 5)
Statistics
Read error : 0
Skipped (treated as error) : 0
Edge jitter error (maybe fixed) : 0
Atom jitter error (maybe fixed) : 0
Drift error (maybe fixed) : 0
Dropped bytes error (maybe fixed) : 0
Duplicated bytes error (maybe fixed) : 0
Inconsistency in error sectors : 0

Track 04
Filename : /Volumes/Nebucadnezzar 01/00 Music rip and upload/Peter Gabriel - SW Live EP (1994) [FLAC]/04 - Mercy Street.flac

Track gain : -6.74 dB
Peak : 0.992188
CRC32 hash (test run) : 8F7B0D56
CRC32 hash : 8F7B0D56
CRC32 hash (skip zero) : 4CE58411
AccurateRip signature : C1201B50
->Accurately ripped! (confidence 6)
Statistics
Read error : 0
Skipped (treated as error) : 0
Edge jitter error (maybe fixed) : 0
Atom jitter error (maybe fixed) : 0
Drift error (maybe fixed) : 0
Dropped bytes error (maybe fixed) : 0
Duplicated bytes error (maybe fixed) : 0
Inconsistency in error sectors : 0

No errors occurred

End of status report