Subcategories
Tags
Language
Tags

Peter Hammill - Offensichtlich Goldfisch (1993) (Re-up)

Posted By: gribovar
Peter Hammill - Offensichtlich Goldfisch (1993) (Re-up)

Peter Hammill - Offensichtlich Goldfisch (1993)
EAC Rip | WavPack (image+.cue+log) - 301 MB | MP3 CBR 320 kbps (LAME 3.93) - 143 MB | Covers (3 MB) included
Genre: Progressive Rock | RAR 3% Rec. | Label: Golden Hind (GH 70112)

An excellent idea (if, perhaps, a somewhat self-indulgent one): 12 of Peter Hammill's (Van Der Graaf Generator) finest recent songs, rendered into the German language that his more stentorian vocals seemed to be striving for, even in English. Titled for Out of Water's "Evidently Goldfish," the album is dominated by material from the early '90s: cuts from Fireships and The Noise account for more than half the album, while the remainder is culled from 1988's In a Foreign Town and 1986's And Close As This. But Offensichtlich Goldfisch is no simple retread of already familiar material. Although little more than the vocals were re-recorded from the original master tapes, the musical textures change immensely in their new setting, regardless of whether or not one understands German. Familiar imagery is skewed, expected emphasis is delayed or dismissed altogether, and Offensichtlich Goldfisch unexpectedly emerges as one of the most surprising albums that Hammill has put his name to in a long time.

Tracklist:
01. Offensichtlich Goldfisch
02. Dich zu finden
03. Die Kalte killt den Kuss
04. Favorit
05. Kaufhaus Europa
06. Der Larm
07. Oase
08. Die Prominenz kusst sich
09. Die Tinte verlischt
10. Auto (Wieder im Wagen)
11. Gaia
12. Schlaft nun

Total time: 59:34

Exact Audio Copy V1.3 from 2. September 2016

EAC extraction logfile from 14. December 2016, 19:50

Peter Hammill / Offensichtlich Goldfisch

Used drive : BENQ DVD DD DW1640 Adapter: 2 ID: 4

Read mode : Secure
Utilize accurate stream : Yes
Defeat audio cache : Yes
Make use of C2 pointers : No

Read offset correction : 618
Overread into Lead-In and Lead-Out : No
Fill up missing offset samples with silence : Yes
Delete leading and trailing silent blocks : No
Null samples used in CRC calculations : Yes
Used interface : Installed external ASPI interface

Used output format : User Defined Encoder
Selected bitrate : 1024 kBit/s
Quality : High
Add ID3 tag : No
Command line compressor : C:\Program Files (x86)\WavPack\wavpack.exe
Additional command line options : -h -ml %source% %dest%


TOC of the extracted CD

Track | Start | Length | Start sector | End sector
––––––––––––––––––––––––––––-
1 | 0:00.00 | 5:02.08 | 0 | 22657
2 | 5:02.08 | 4:46.72 | 22658 | 44179
3 | 9:49.05 | 4:12.63 | 44180 | 63142
4 | 14:01.68 | 5:06.42 | 63143 | 86134
5 | 19:08.35 | 5:11.15 | 86135 | 109474
6 | 24:19.50 | 6:13.13 | 109475 | 137462
7 | 30:32.63 | 5:44.17 | 137463 | 163279
8 | 36:17.05 | 4:34.28 | 163280 | 183857
9 | 40:51.33 | 4:23.22 | 183858 | 203604
10 | 45:14.55 | 4:02.03 | 203605 | 221757
11 | 49:16.58 | 5:38.35 | 221758 | 247142
12 | 54:55.18 | 4:39.02 | 247143 | 268069


Range status and errors

Selected range

Filename D:\Done\EAC\Current\My\Ripped\Peter Hammill - Offensichtlich Goldfisch\Peter Hammill - Offensichtlich Goldfisch.wav

Peak level 100.0 %
Extraction speed 8.7 X
Range quality 100.0 %
Test CRC D79F76DF
Copy CRC D79F76DF
Copy OK

No errors occurred


AccurateRip summary

Track 1 accurately ripped (confidence 7) [9172C053] (AR v2)
Track 2 accurately ripped (confidence 7) [91B7F181] (AR v2)
Track 3 accurately ripped (confidence 7) [6C7F2E1C] (AR v2)
Track 4 accurately ripped (confidence 7) [A8AD5E43] (AR v2)
Track 5 accurately ripped (confidence 7) [C9210B52] (AR v2)
Track 6 accurately ripped (confidence 7) [3ADEB4E0] (AR v2)
Track 7 accurately ripped (confidence 7) [89F9DFA8] (AR v2)
Track 8 accurately ripped (confidence 7) [FF26B745] (AR v2)
Track 9 accurately ripped (confidence 7) [B24EC734] (AR v2)
Track 10 accurately ripped (confidence 7) [F4C047CB] (AR v2)
Track 11 accurately ripped (confidence 7) [785E8D47] (AR v2)
Track 12 accurately ripped (confidence 7) [CE23FD04] (AR v2)

All tracks accurately ripped

End of status report

==== Log checksum F3D37103A8CB1BE735E2FFEEB04961AF8C4514E372300F07C9A1386C4FE93433 ====

[CUETools log; Date: 30.11.2020 18:43:36; Version: 2.1.4]
[CTDB TOCID: HYhfcsTjI2oW5CBSn6bHXj8xDvc-] found.
Track | CTDB Status
1 | (20/20) Accurately ripped
2 | (20/20) Accurately ripped
3 | (20/20) Accurately ripped
4 | (20/20) Accurately ripped
5 | (20/20) Accurately ripped
6 | (20/20) Accurately ripped
7 | (20/20) Accurately ripped
8 | (20/20) Accurately ripped
9 | (20/20) Accurately ripped
10 | (20/20) Accurately ripped
11 | (20/20) Accurately ripped
12 | (20/20) Accurately ripped
[AccurateRip ID: 001ab6f0-00f9be43-a80df60c] found.
Track [ CRC | V2 ] Status
01 [206360b9|9172c053] (06+14/20) Accurately ripped
02 [134ca4a8|91b7f181] (06+14/20) Accurately ripped
03 [70735c4c|6c7f2e1c] (06+13/19) Accurately ripped
04 [1c89ac3b|a8ad5e43] (06+13/19) Accurately ripped
05 [71dceeed|c9210b52] (06+13/19) Accurately ripped
06 [f6665422|3adeb4e0] (06+14/20) Accurately ripped
07 [6e93bb86|89f9dfa8] (06+13/19) Accurately ripped
08 [e7c7fc10|ff26b745] (06+14/20) Accurately ripped
09 [dca5e1f8|b24ec734] (06+14/20) Accurately ripped
10 [17f72940|f4c047cb] (06+14/20) Accurately ripped
11 [4ede7dca|785e8d47] (06+13/19) Accurately ripped
12 [1b3fbe54|ce23fd04] (06+13/19) Accurately ripped

Track Peak [ CRC32 ] [W/O NULL] [ LOG ]
– 100,0 [D79F76DF] [D54EA798] CRC32
01 97,1 [1F666144] [64DC83A7]
02 82,9 [B15E678F] [EED8960A]
03 93,8 [CD1872B8] [C8F448B4]
04 64,7 [7E57C62A] [502DD26E]
05 85,9 [B4CFF65D] [7467C622]
06 99,2 [F3E3A89D] [7A60DF30]
07 80,8 [038AAD38] [ED5DD768]
08 100,0 [6758F2F5] [1FDB1287]
09 98,2 [FFF8459F] [6317A919]
10 99,7 [C66156AD] [709B4465]
11 71,8 [08924B95] [3C888C88]
12 79,2 [A90939E3] [7673728E]

Thanks to Monkman