Subcategories

Peter Schreier, Staatskapelle Dresden - Johann Sebastian Bach: The Great Choral Masterpieces [12CDs] (1996)

Posted By: ArlegZ
Peter Schreier, Staatskapelle Dresden - Johann Sebastian Bach: The Great Choral Masterpieces [12CDs] (1996)

Peter Schreier, Staatskapelle Dresden - Johann Sebastian Bach: The Great Choral Masterpieces [12CDs] (1996)
EAC | FLAC | Image (Cue & Log) ~ 2,78 Gb | Total time: 11:31:50 | Scans included
Classical | Label: Philips | # 454 108-2 | Recorded: 1984-1994

Bachs Passions and other great choral works in performances with the Staatskapelle Dresden under the masterly direction of Peter Schreier who also sings the role of the Evangelist. Schreiers aim in Bach interpretation is to bring new lightness without following the full dictates of authentic performance, and in this he succeeds superbly. The recording is first rate, with the choral forces well separated.

Performer:
CDs 1-3: Christmas Oratorio BWV248
Helen Donath, Soprano
Andrea Ihle, Soprano
Marjana Lipovšek, Contralto
Peter Schreier, Tenor
Eberhard Büchner, Tenor
Robert Holl, Bass
Rundfunkchor Leipzig
Trompetenensemble Ludwig Güttler
Staatskapelle Dresden

CDs 4-5: St John Passion BWV245
Peter Schreier, Tenor (Evangelist)
Robert Holl, Bass (Jesus)
Egbert Junghanns, Baritone (Petrus)
Andreas Scheibner, Baritone (Pilatus)
Ekkehard Wagner, Tenor (Servus)
Andrea Ihle, Soprano (Ancilla)
Robert Alexander, Soprano
Marjana Lipovšek, Contralto
Olaf Bär, Baritone
Rundfunkchor Leipzig
Staatskapelle Dresden

CDs 6-8: St Matthew Passion BWV245
Peter Schreier, Tenor (Evangelist)
Theo Adam, Bass (Jesus)
Lucia Popp, Soprano (Arias)
Marjana Lipovšek, Contralto (Arias)
Eberhard Büchner, Tenor (Arias)
Robert Holl, Bass (Arias)
Andreas Scheibner, Baritone (Petrus)
Ekkehard Wlaschiha, Baritone (Judas)
Hermann Christian Polster, Bass (Pilatus)
Olaf Bär, Baritone (Pontifex)
Johanna Schneiderheinze, Contralto (Testis I)
Ekkehard Wegner, Tenor (Testis II)
Andrea Ihle, Soprano (Ancilla I)
Elisabeth Wilke, Contralto (Ancilla II)
Helga Termer, Soprano
Hans-Joachim Ribbe, Bass
Klaus Henkel, Bass
Rundfunkchor Leipzig
Dresdner Kapellknaben
Staatskapelle Dresden

CD 9: Magnificat BWV243; Mass in A major BWV234
Barbara Bonney, Soprano
Birgit Remmert, Contralto
Rainer Trost, Tenor
Olaf Bär, Baritone
RIAS Chamber Choir
Kammerorchester Carl Philipp Emanuel Bach

CD 10: Mass in F major BWV233; Mass in G minor BWV235; Mass in G major BWV236
RIAS Chamber Choir
Kammerorchester Carl Philipp Emanuel Bach

CDs 11-12: Mass in B minor BWV232
Arleen Auger, Soprano
Ann Murray, Mezzo-soprano
Marjana Lipovšek, Contralto
Peter Schreier, Tenor
Anton Scharinger, Bass
Rundfunkchor Leipzig
Staatskapelle Dresden


CD 1: Christmas Oratorio, BWV 248
Part One - For The First Day Of Christmas
01. No.1 Chorus: "Jauchzet, frohlocket"
02. No.2 Evangelist: "Es begab sich aber zu der Zeit"
03. No.3 Rezitativ (Alt): "Nun wird mein liebster Bräutigam"
04. No.4 Aria (Alto): " Bereite dich, Zion"
05. No.5 Choral: "Wie soll ich dich empfangen"
06. No.6 Evangelist, No.7 Choral
07. No.8 Aria (Baß): "Großer Herr, o starker König"
08. No.9 Choral: "Ach mein herzliebes Jesulein"
Part Two - For The Second Day Of Christmas
09. No.10 Sinfonia
10. No.11 Evangelist: "Und es waren Hirten in derselben Gegend"
11. No.12 Chorale: "Brich an, o schönes Morgenlicht"
12. No.13 Evangelist, Engel: "Und der Engel sprach zu Ihnen"
13. No.14 Rezitativ (Baß): "Was Gott dem Abraham Verheißen"
14. No.15 Aria (Tenor): "Frohe Hirten, eilt, ach eilet"
15. No.16 Evangelist: "Und das habt zum Zeichen"
16. No.17 Chorale: "Schaut hin, dort liegt im finstern Stall"
17. No.18 Rezitativ (Baß): "So geht denn hin, ihr Hirten, geht"
18. No.19 Aria (Alto): "Schlafe, mein Liebster, geniesse der Ruh"
19. No.20 Evangelist: "Und alsbald war da bei dem Engel"
20. No.21 Chor: "Ehre sei Gott in der Höhe"
21. No.22 Rezitativ (Baß): "So recht, ihr Engel, jauchzt und singet"
22. No.23 Chorale: "Wir singen dir in deinem Heer"
CD 2:
Part Three - For The Third Day Of Christmas
01. No.24 Chor: "Herrscher des Himmels, erhöre das Lallen"
02. No.25 Evangelist, No.26 Chor, No.27 Rezitativ (Baß)
03. No.28 Choral: "Dies hat er alles uns getan"
04. No.29 Duett (Sopran, Baß): "Herr, dein Mitleid, dein Erbarmen"
05. No.30 Evangelist: "Und sie kamen eilend"
06. No.31 Aria (Alt): "Schließe, mein Herze, dies selige Wunder"
07. No.32 Recitativ (Alt): "Ja, ja, mein Herz soll es bewahren"
08. No.33 Choral: "Ich will dich mit Fleiß bewahren"
09. No.34 Evangelist: "Und die Hirten kehrten wieder um"
10. No.35 Choral: "Seid froh dieweil"
11. No.24 Chor (da capo): "Herrscher des Himmels, erhöre das Lallen"
Part Four - For New Year's Day
12. No.36 Chor: "Fallt mit Danken, fallt mit Loben"
13. No.37 Evangelist: "Und da acht Tage um waren"
14. No.38 Rezitativ (Baß): "Immanuel, o süßes Wort" Arioso (Chor-Sopran, Baß): "Jesu, du mein liebstes Leben"-"Komm ich will dich mit Lust umfassen"
15. No.39 Aria (Soprano, Echo-soprano): "Flösst, mein Heiland, flösst dein Namen"
16. No.40 Rezitativ (Baß): "Wohlan, dein Name soll allein" Arioso (Chor-Sopran): "Jesu mein Freud und Wonne"
17. No.41 Aria (Tenor): "Ich will nur dir zu Ehren leben"
18. No.42 Choral: "Jesus richte mein Beginnen"

CD 3:
Part Five - For The 1st Sunday In The New Year
01. No.43 Chor: "Ehre sei dir, Gott, gesungen"
02. No.44 Evangelist, No.45 Chor
03. No.46 Choral: "Dein Glanz all Finsternis verzehrt"
04. No.47 Aria (Bass): "Erleucht auch meine finstre Sinnen"
05. No.48 Evangelist, No.49 Rezitativ (Alt)
06. No.50 Evangelist: "Und ließ versammeln alle Hohepriester"
07. No.51 Terzetto (Soprano, Alto, Tenor): "Ach, wann wird die Zeit erscheinen?"
08. No.52 Rezitativ (Alt): "Mein Liebster herrschet schon"
09. No.53 Choral: "Zwar ist solche Herzensstube"
Part Six - For The Feast Of Epiphany
10. No.54 Chor: "Herr, wenn die stolzen Feinde schnauben"
11. No.55 Evangelist: "Da berief Herodes die Weisen heimlich" - Herodes: "Ziehet hin und forschet fleißig"
12. No.56 Rezitativ (Sopran): "Du Falscher, suche nur den Herrn zu fällen"
13. No.57 Aria (Sopran): "Nur ein Wink von seinen Händen"
14. No.58 Evangelist: "Als sie nun den König gehöret hatten"
15. No.59 Chorale: "Ich steh an deiner Krippen hier"
16. No.60 Evangelist: "Und Gott befahl ihnen im Traum"
17. No.61 Rezitativ (Tenor): "So geht! Genug, mein Schatz geht nicht von hier"
18. No.62 Aria (Tenor): "Nun mögt ihr stolzen Feinde schrecken"
19. No.63 Rezitativ (Sopran, Alt, Tenor, Baß): "Was will der Hölle Schrecken nun?"
20. No.64 Choral: "Nun seid ihr wohl gerochen"

CD 4: Johannes-Passion, BWV 245
Part One
01. 1. "Herr, unser Herrscher"
02. 2. "Jesus ging mit seinen Jüngern"
03. 3. "O große Lieb, o Lieb ohn' alle Maße"
04. 4. "Auf daß das Wort erfüllet würde"
05. 5. "Dein Will gescheh, Herr Gott zugleich"
06. 6. "Die Schar aber und der Oberhauptmann"
07. 7. "Von den Stricken meiner Sünden"
08. 8. "Simon Petrus aber folgete Jesu nach"
09. 9. "Ich folge dir gleichfalls mit freudigen Schritten"
10. 10. "Derselbige Jünger war dem Hohenpriester bekannt"
11. 11. "Wer hat dich so geschlagen"
12. 12. "Und Hannas sandte ihn gebunden"
13. 13. "Ach mein Sinn"
14. 14. "Petrus, der nicht denkt zurück"
Part Two
15. 15. "Christus, der uns selig macht"
16. 16. "Da führeten sie Jesum"
17. 17. "Ach großer König, groß zu allen Zeiten"
18. 18. "Da sprach Pilatus zu ihnen"
19. 19. "Betrachte, meine Seele"
20. 20. "Erwäge, wie sein blutgefärbter Rücken"
21. 21. "Und die Kriegsknechte flochten"
22. 22. "Durch dein Gefängnis, Gottes Sohn"
23. 23. "Die Juden aber schrieen und sprachen"
24. 24. "Eilt ihr angefochtnen Seelen"
CD 5:
Part Two
01. 25. "Allda kreuzigten sie ihn"
02. 26. "In meines Herzens Grunde"
03. 27. "Die Kriegsknechte aber"
04. 28. "Er nahm alles wohl in acht"
05. 29. "Und von Stund' an nahm sie der Jünger"
06. 30. "Es ist vollbracht!"
07. 31. "Und neigte das Haupt und verschied"
08. 32. "Mein teurer Heiland"
09. 33. "Und siehe da, der Vorhang im Tempel zerriß"
10. 34. "Mein Herz, indem die ganze Welt"
11. 35. "Zerfließe, mein Herze, in Fluten der Zähren"
12. 36. "Die Juden aber, dieweil es der Rüsttag war"
13. 37. "O hilf, Christe, Gottes Sohn"
14. 38. "Darnach bat Pilatum Joseph von Arimathia"
15. 39. "Ruht wohl, ihr heiligen Gebeine"
16. 40. "Ach Herr, laß dein lieb Engelein"
Part One
17. No.11+ Aria (Basso)-Choral: " Himmel reiße, Welt erbebe" - "Jesu, deine Passion"
18. No.13 II Aria (Tenore): " Zerschmettert mich"
Part Two
19. No.19 II: Aria (Tenore): " Ach windet euch nicht so "

CD 6: St. Matthew Passion, BWV 244
Part One
01. No.1: "Kommt, ihr Töchter, helft mir klagen"
02. No.2: "Da Jesus diese Rede vollendet hatte"
03. No.3: "Herzliebster Jesu, was hast du verbrochen"
04. No.4 Evangelist, Chorus I/II, Jesus: "Da versammelten sich die Hohenpriester"
05. No.5 Recitative: "Du lieber Heiland du"
06. No.6 Aria (Alto): "Buss und Reu"
07. No.7 Evangelist, Judas: "Da ging hin der Zwölfen einer"
08. No.8 Aria (Soprano): "Blute nur, du liebes Herz"
09. No.9 Evangelist, Chorus I, Jesus: "Aber am ersten Tage der süssen Brot"
10. No.10 Choral: "Ich bin's, ich sollte büssen"
11. No.11 Evangelist, Jesus, Judas: "Er antwortete und sprach"
12. No.12 Recitative: "Wiewohl mein Herz in Tränen schwimmt"
13. No.13 Aria (Soprano): "Ich will dir mein Herz schenken"
14. No.14 Evangelist, Jesus: "Und da sie den Lobgesang gesprochen hatten"
15. No.15 Choral: "Erkenne mich, mein Hüter"
16. No.16 Evangelist, Jesus, Petrus: "Petrus aber antwortete"
17. No.17 Choral: "Ich will hier bei dir stehen"
18. No.18 Evangelist, Jesus: "Da kam Jesus mit ihnen zu einem Hofe"
19. No.19 Recitative (Tenor, Chorus II): "O Schmerz! hier zittert das gequälte Herz"
20. No.20 Aria (Tenor, Chorus II): "Ich will bei meinem Jesu wachen"
21. No.21 Evangelist, Jesus: "Und ging hin ein wenig"
22. No.22 Recitative (Bass): "Der Heiland fällt vor seinem Vater nieder"
23. No.23 Aria (Bass): "Gerne will ich mich bequemen"
24. No.24 Evangelist, Jesus: "Und er kam zu seinen Jüngern"
25. No.25 Choral: "Was mein Gott will, das g'scheh allzeit"
CD 7:
01. No.26 Evangelist, Jesus, Judas: "Und er kam und fand sie aber schlafend"
02. No.27 Aria (Soprano, Alto, Chorus II): "So ist mein Jesus nun gefangen" - Chorus I/II: "Sind Blitze, sind Donner"
03. No.28 Evangelist, Jesus: "Und siehe, einer aus denen"
04. No.29 Choral: "O Mensch, bewein dein Sünde groß"
Part Two
05. No.30 Aria (Alto, Chorus II): "Ach nun ist mein Jesu hin"
06. No.31 Evangelist: "Die aber Jesum gegriffen hatten"
07. No.32 Choral: "Mir hat die Welt trüglich gericht"
08. No.33 Evangelist, Pontifex, Testis I/II: "Und wiewohl viel falsche Zeugen herzutraten"
09. No.34 Recitative (Tenor): "Mein Jesus schweigt zu falschen Lügen stille"
10. No.35 Aria (Tenor): "Geduld! Wenn mich falsche Zungen stechen"
11. No.36 Evangelist, Pontifex, Jesus, Chorus I/II: "Und der Hohepriester antwortete"
12. No.37 Choral: "Wer hat dich so geschlagen"
13. No.38 Evangelist, Ancilla I/II, Petrus, Chorus II: "Petrus aber sass draussen im Palast"
14. No.39 Aria (Alto): "Erbarme dich"
15. No.40 Choral: "Bin ich gleich von dir gewichen"
16. No.41 Evangelist, Judas, Chorus I/II, Pontifex I/II: "Des Morgens aber hielten alle Hohepriester"
17. No.42 Aria (Bass): "Gebt mir meinen Jesum wieder"
18. No.43 Evangelist, Pilatus, Jesus: "Sie hielten aber einen Rat"
19. No.44 Choral: "Befiehl du deine Wege"
20. No.45 Evangelist, Pilatus, Uxor Pilati, Chorus I/II: "Auf das Fest aber hatte der Landpfleger Gewohnheit"
21. No.46 Choral: "Wie wunderbarlich ist doch diese Strafe"
22. No.47 Evangelist, Pilatus: "Der Landpfleger sagte"
23. No.48 Recitative (Soprano): "Er hat uns allen wohlgetan"
24. No.49 Aria (Soprano): "Aus Liebe will mein Heiland sterben"
CD 8:
01. No.50 Evangelist, Chorus I/II, Pilatus: "Sie schrieen aber noch mehr"
02. No.51 Recitative (Alto): "Erbarm es Gott"
03. No.52 Aria (Alto): "Können Tränen meiner Wangen"
04. No.53 Evangelist, Chorus I/II: "Da nahmen die Kriegsknechte"
05. No.54 Choral: "O Haupt voll Blut und Wunden"
06. No.55 Evangelist: "Und da sie ihn verspottet hatten"
07. "Ja freilich will in uns das Fleisch und Blut"
08. "Komm, süsses Kreuz"
09. No.58 Evangelist, Chorus I/II: "Und da sie an die Stätte kamen"
10. "Ach Golgatha"
11. "Sehet, Jesus hat die Hand"
12. No.61 Evangelist, Jesus, Chorus I/II: "Und von der sechsten Stunde an"
13. "Wenn ich einmal soll scheiden"
14. "Und siehe da, der Vorhang im Tempel zerriss"
15. "Am Abend, da es kühle war"
16. "Mache dich, mein Herze, rein"
17. "Und Joseph nahm den Leib"
18. "Nun ist der Herr zur Ruh gebracht"
19. "Wir setzen uns mit Tränen nieder"

CD 9:
Magnificat in D Major, BWV 243
01. Chorus: "Magnificat"
02. Aria: "Et exsultavit spiritus meus"
03. Aria: "Quia respexit humilitatem"
04. Chorus: "Omnes generationes"
05. Aria: "Quia fecit mihi magna"
06. Aria (Duet): "Et misericordia"
07. Chorus: "Fecit potentiam"
08. Aria: "Deposuit potentes"
09. Aria: "Esurientes implevit bonis"
10. Aria (Terzetto): "Suscepit Israel"
11. Chorus: "Sicut locutus est"
12. Chorus: "Gloria Patri"
Mass in A Major, BWV 234
13. 1. Kyrie
14. 2. Gloria
15. 3. Domine Deus
16. 4. Qui tollis peccata mundi
17. 5. Quoniam tu solus
18. 6. Cum Sancto Spiritu

CD 10:
Mass in F Major, BWV 233
01. 1. Kyrie
02. 2. Gloria in excelcis
03. 3. Domine Deus
04. 4. Qui tollis peccata
05. 5. Quoniam tu solus sanctus
06. 6. Cum sancto Spiritu
Mass in G Minor, BWV 235
07. 1. Kyrie
08. 2. Gloria
09. 3a. Gratias agimus tibi
10. 3b. Domine fili unigenite
11. 4. Qui tollis peccata mundi
12. 6. Cum Sancto Spiritu
Mass in G Major, BWV 236
13. 1. Kyrie
14. 2. Gloria
15. 3. Domine Deus
16. 4. Qui tollis peccata mundi
17. 5. Quoniam tu solus
18. 6. Cum Sancto Spiritu

CD 11: Mass in B Minor, BWV 232
Kyrie
01. 1. Kyrie Eleison I
02. 2. Christe eleison
03. 3. Kyrie eleison II
Gloria
04. 4. Gloria in excelsis Deo
05. 5. Et in terra pax
06. 6. Laudamus te
07. 7. Gratias agimus tibi
08. 8. Domine Deus
09. 9. Qui tollis peccata mundi
10. 10. Qui sedes ad dexteram Patris
11. 11. Quoniam tu solus sanctus
12. 12. Cum Sancto Spiritu
CD 12:
Credo
01. 13. Credo in unum Deum
02. 14. Patrem omnipotentem
03. 15. Et in unum Dominum
04. 16. Et incarnatus est
05. 17. Crucifixus
06. 18. Et resurrexit
07. 19. Et in Spiritum Sanctum
08. 20. Confiteor unum baptisma
09. 21. Et expecto resurrectionem
Sanctus
10. 22. Sanctus
11. 23. Osanna in excelsis
12. 24. Benedictus
13. 25. Osanna in excelsis
Agnus Dei
14. 26. Agnus Dei
15. 27. Dona nobis pacem



Exact Audio Copy V1.3 from 2. September 2016

EAC extraction logfile from 19. February 2020, 3:06

Helen Donath, Andrea Ihle, Marjana Lipovšek, Peter Schreier, Eberhard Büchner, Robert Holl / Bach - Weihnachts-Oratorium (Disc 1)

Used drive : ATAPI iHAS124 F Adapter: 1 ID: 0

Read mode : Secure
Utilize accurate stream : Yes
Defeat audio cache : Yes
Make use of C2 pointers : No

Read offset correction : 6
Overread into Lead-In and Lead-Out : No
Fill up missing offset samples with silence : Yes
Delete leading and trailing silent blocks : No
Null samples used in CRC calculations : Yes
Used interface : Native Win32 interface for Win NT & 2000

Used output format : User Defined Encoder
Selected bitrate : 1024 kBit/s
Quality : High
Add ID3 tag : No
Command line compressor : C:\Program Files (x86)\Exact Audio Copy\FLAC\FLAC.EXE
Additional command line options : -6 -V -T "ARTIST=%artist%" -T "TITLE=%title%" -T "ALBUM=%albumtitle%" -T "DATE=%year%" -T "TRACKNUMBER=%tracknr%" -T "GENRE=%genre%" -T "COMMENT=%comment%" -T "BAND=%albuminterpret%" -T "ALBUMARTIST=%albuminterpret%" -T "COMPOSER=%composer%" %haslyrics%–tag-from-file=LYRICS="%lyricsfile%"%haslyrics% -T "DISCNUMBER=%cdnumber%" -T "TOTALDISCS=%totalcds%" -T "TOTALTRACKS=%numtracks%" %hascover%–picture="%coverfile%"%hascover% %source% -o %dest%


TOC of the extracted CD

Track | Start | Length | Start sector | End sector
––––––––––––––––––––––––––––-
1 | 0:00.33 | 7:37.00 | 33 | 34307
2 | 7:37.33 | 1:22.67 | 34308 | 40524
3 | 9:00.25 | 1:01.45 | 40525 | 45144
4 | 10:01.70 | 5:31.38 | 45145 | 70007
5 | 15:33.33 | 1:16.50 | 70008 | 75757
6 | 16:50.08 | 3:37.12 | 75758 | 92044
7 | 20:27.20 | 4:42.13 | 92045 | 113207
8 | 25:09.33 | 1:20.00 | 113208 | 119207
9 | 26:29.33 | 6:25.00 | 119208 | 148082
10 | 32:54.33 | 0:51.37 | 148083 | 151944
11 | 33:45.70 | 1:08.25 | 151945 | 157069
12 | 34:54.20 | 0:50.00 | 157070 | 160819
13 | 35:44.20 | 0:38.13 | 160820 | 163682
14 | 36:22.33 | 3:35.00 | 163683 | 179807
15 | 39:57.33 | 0:23.37 | 179808 | 181569
16 | 40:20.70 | 0:38.25 | 181570 | 184444
17 | 40:59.20 | 0:59.13 | 184445 | 188882
18 | 41:58.33 | 9:01.00 | 188883 | 229457
19 | 50:59.33 | 0:15.45 | 229458 | 230627
20 | 51:15.03 | 2:46.05 | 230628 | 243082
21 | 54:01.08 | 0:22.30 | 243083 | 244762
22 | 54:23.38 | 1:19.70 | 244763 | 250757


Range status and errors

Selected range

Filename C:\EACRip\EASTER\Bach - The Great Choral Masterpieces (Peter Schreier) [Philips, 12CD]\CD1 - Christmas I\Bach - Weihnachts-Oratorium (Disc 1) - Peter Schreier.wav

Peak level 100.0 %
Extraction speed 3.1 X
Range quality 100.0 %
Test CRC AD56FAFC
Copy CRC AD56FAFC
Copy OK

No errors occurred


AccurateRip summary

Track 1 accurately ripped (confidence 3) [376F633F] (AR v2)
Track 2 accurately ripped (confidence 3) [4BBC3783] (AR v2)
Track 3 accurately ripped (confidence 3) [64CFECEC] (AR v2)
Track 4 accurately ripped (confidence 3) [B206DFA7] (AR v2)
Track 5 accurately ripped (confidence 3) [FDABB7A5] (AR v2)
Track 6 accurately ripped (confidence 3) [F92B32AF] (AR v2)
Track 7 accurately ripped (confidence 3) [0AA05653] (AR v2)
Track 8 accurately ripped (confidence 3) [D160E29C] (AR v2)
Track 9 accurately ripped (confidence 3) [9C296A61] (AR v2)
Track 10 accurately ripped (confidence 3) [3DEB7F8E] (AR v2)
Track 11 accurately ripped (confidence 3) [C50AE34A] (AR v2)
Track 12 accurately ripped (confidence 3) [9EE02415] (AR v2)
Track 13 accurately ripped (confidence 3) [C89D6B6F] (AR v2)
Track 14 accurately ripped (confidence 3) [B3B44A76] (AR v2)
Track 15 accurately ripped (confidence 3) [9CE7097B] (AR v2)
Track 16 accurately ripped (confidence 3) [9ADF04A6] (AR v2)
Track 17 accurately ripped (confidence 3) [EFDE9376] (AR v2)
Track 18 accurately ripped (confidence 3) [37F2A73B] (AR v2)
Track 19 accurately ripped (confidence 3) [2A8BD6A0] (AR v2)
Track 20 accurately ripped (confidence 3) [63D76259] (AR v2)
Track 21 accurately ripped (confidence 3) [2640BAFA] (AR v2)
Track 22 accurately ripped (confidence 3) [11845441] (AR v2)

All tracks accurately ripped

End of status report

–– CUETools DB Plugin V2.1.6

[CTDB TOCID: tp03GYo48Z5VW9U82DjvEnE1NUg-] found
Submit result: tp03GYo48Z5VW9U82DjvEnE1NUg- has been confirmed
Track | CTDB Status
1 | (104/108) Accurately ripped
2 | (107/108) Accurately ripped
3 | (106/108) Accurately ripped
4 | (104/108) Accurately ripped
5 | (107/108) Accurately ripped
6 | (104/108) Accurately ripped
7 | (103/108) Accurately ripped
8 | (108/108) Accurately ripped
9 | (102/108) Accurately ripped
10 | (106/108) Accurately ripped
11 | (105/108) Accurately ripped
12 | (106/108) Accurately ripped
13 | (106/108) Accurately ripped
14 | (105/108) Accurately ripped
15 | (106/108) Accurately ripped
16 | (106/108) Accurately ripped
17 | (106/108) Accurately ripped
18 | (101/108) Accurately ripped
19 | (106/108) Accurately ripped
20 | (103/108) Accurately ripped
21 | (105/108) Accurately ripped
22 | ( 14/108) Accurately ripped


==== Log checksum FDB5D0566674DAAE64E56F118C85543334569AC3B8A6F7E679C879F4236D3EF4 ====


Exact Audio Copy V1.3 from 2. September 2016

EAC extraction logfile from 19. February 2020, 12:29

Helen Donath, Andrea Ihle, Marjana Lipovšek, Peter Schreier, Eberhard Büchner, Robert Holl / Bach - Weihnachts-Oratorium (Disc 2)

Used drive : ATAPI iHAS124 F Adapter: 1 ID: 0

Read mode : Secure
Utilize accurate stream : Yes
Defeat audio cache : Yes
Make use of C2 pointers : No

Read offset correction : 6
Overread into Lead-In and Lead-Out : No
Fill up missing offset samples with silence : Yes
Delete leading and trailing silent blocks : No
Null samples used in CRC calculations : Yes
Used interface : Native Win32 interface for Win NT & 2000

Used output format : User Defined Encoder
Selected bitrate : 1024 kBit/s
Quality : High
Add ID3 tag : No
Command line compressor : C:\Program Files (x86)\Exact Audio Copy\FLAC\FLAC.EXE
Additional command line options : -6 -V -T "ARTIST=%artist%" -T "TITLE=%title%" -T "ALBUM=%albumtitle%" -T "DATE=%year%" -T "TRACKNUMBER=%tracknr%" -T "GENRE=%genre%" -T "COMMENT=%comment%" -T "BAND=%albuminterpret%" -T "ALBUMARTIST=%albuminterpret%" -T "COMPOSER=%composer%" %haslyrics%–tag-from-file=LYRICS="%lyricsfile%"%haslyrics% -T "DISCNUMBER=%cdnumber%" -T "TOTALDISCS=%totalcds%" -T "TOTALTRACKS=%numtracks%" %hascover%–picture="%coverfile%"%hascover% %source% -o %dest%


TOC of the extracted CD

Track | Start | Length | Start sector | End sector
––––––––––––––––––––––––––––-
1 | 0:00.33 | 1:48.62 | 33 | 8194
2 | 1:49.20 | 1:40.13 | 8195 | 15707
3 | 3:29.33 | 0:47.00 | 15708 | 19232
4 | 4:16.33 | 8:16.62 | 19233 | 56494
5 | 12:33.20 | 1:24.13 | 56495 | 62807
6 | 13:57.33 | 5:40.00 | 62808 | 88307
7 | 19:37.33 | 0:28.25 | 88308 | 90432
8 | 20:05.58 | 0:57.12 | 90433 | 94719
9 | 21:02.70 | 0:22.00 | 94720 | 96369
10 | 21:24.70 | 0:54.38 | 96370 | 100457
11 | 22:19.33 | 1:53.00 | 100458 | 108932
12 | 24:12.33 | 5:26.37 | 108933 | 133419
13 | 29:38.70 | 0:34.00 | 133420 | 135969
14 | 30:12.70 | 2:49.63 | 135970 | 148707
15 | 33:02.58 | 5:37.25 | 148708 | 174007
16 | 38:40.08 | 1:37.50 | 174008 | 181332
17 | 40:17.58 | 4:58.50 | 181333 | 203732
18 | 45:16.33 | 2:01.00 | 203733 | 212807


Range status and errors

Selected range

Filename C:\EACRip\EASTER\Bach - The Great Choral Masterpieces (Peter Schreier) [Philips, 12CD]\CD 02 - Christmas II\Bach - Weihnachts-Oratorium (Disc 2) - Peter Schreier.wav

Peak level 75.3 %
Extraction speed 3.0 X
Range quality 100.0 %
Test CRC 7CD89721
Copy CRC 7CD89721
Copy OK

No errors occurred


AccurateRip summary

Track 1 accurately ripped (confidence 3) [E6423B7B] (AR v2)
Track 2 accurately ripped (confidence 3) [DB0036BF] (AR v2)
Track 3 accurately ripped (confidence 3) [C58CED6A] (AR v2)
Track 4 accurately ripped (confidence 3) [6302C23B] (AR v2)
Track 5 accurately ripped (confidence 3) [13F6122D] (AR v2)
Track 6 accurately ripped (confidence 3) [CDE31385] (AR v2)
Track 7 accurately ripped (confidence 3) [227655A4] (AR v2)
Track 8 accurately ripped (confidence 3) [4D7AD905] (AR v2)
Track 9 accurately ripped (confidence 3) [F2D21A77] (AR v2)
Track 10 accurately ripped (confidence 3) [2A558F93] (AR v2)
Track 11 accurately ripped (confidence 3) [34B01DFB] (AR v2)
Track 12 accurately ripped (confidence 3) [26333786] (AR v2)
Track 13 accurately ripped (confidence 3) [A6E9B1FA] (AR v2)
Track 14 accurately ripped (confidence 3) [7ECADC12] (AR v2)
Track 15 accurately ripped (confidence 3) [5CCF8667] (AR v2)
Track 16 accurately ripped (confidence 3) [476A1B7F] (AR v2)
Track 17 accurately ripped (confidence 3) [F10FCCAD] (AR v2)
Track 18 accurately ripped (confidence 3) [866F34CC] (AR v2)

All tracks accurately ripped

End of status report

–– CUETools DB Plugin V2.1.6

[CTDB TOCID: XUJ8FnygdAeD8pFOniKyMrqkAzQ-] found
Submit result: XUJ8FnygdAeD8pFOniKyMrqkAzQ- has been confirmed
Track | CTDB Status
1 | (89/90) Accurately ripped
2 | (89/90) Accurately ripped
3 | (89/90) Accurately ripped
4 | (88/90) Accurately ripped
5 | (89/90) Accurately ripped
6 | (11/90) Accurately ripped
7 | (89/90) Accurately ripped
8 | (89/90) Accurately ripped
9 | (89/90) Accurately ripped
10 | (89/90) Accurately ripped
11 | (89/90) Accurately ripped
12 | (88/90) Accurately ripped
13 | (89/90) Accurately ripped
14 | (89/90) Accurately ripped
15 | (89/90) Accurately ripped
16 | (89/90) Accurately ripped
17 | (89/90) Accurately ripped
18 | (11/90) Accurately ripped


==== Log checksum 2B8F6DA7C4B6B259850D8509BE1A3C91AF1129E5F6253D21906D54E78414C13F ====


Exact Audio Copy V1.3 from 2. September 2016

EAC extraction logfile from 19. February 2020, 13:49

Helen Donath, Andrea Ihle, Marjana Lipovšek, Peter Schreier, Eberhard Büchner, Robert Holl / Bach - Weihnachts-Oratorium (Disc 3)

Used drive : ATAPI iHAS124 F Adapter: 1 ID: 0

Read mode : Secure
Utilize accurate stream : Yes
Defeat audio cache : Yes
Make use of C2 pointers : No

Read offset correction : 6
Overread into Lead-In and Lead-Out : No
Fill up missing offset samples with silence : Yes
Delete leading and trailing silent blocks : No
Null samples used in CRC calculations : Yes
Used interface : Native Win32 interface for Win NT & 2000

Used output format : User Defined Encoder
Selected bitrate : 1024 kBit/s
Quality : High
Add ID3 tag : No
Command line compressor : C:\Program Files (x86)\Exact Audio Copy\FLAC\FLAC.EXE
Additional command line options : -6 -V -T "ARTIST=%artist%" -T "TITLE=%title%" -T "ALBUM=%albumtitle%" -T "DATE=%year%" -T "TRACKNUMBER=%tracknr%" -T "GENRE=%genre%" -T "COMMENT=%comment%" -T "BAND=%albuminterpret%" -T "ALBUMARTIST=%albuminterpret%" -T "COMPOSER=%composer%" %haslyrics%–tag-from-file=LYRICS="%lyricsfile%"%haslyrics% -T "DISCNUMBER=%cdnumber%" -T "TOTALDISCS=%totalcds%" -T "TOTALTRACKS=%numtracks%" %hascover%–picture="%coverfile%"%hascover% %source% -o %dest%


TOC of the extracted CD

Track | Start | Length | Start sector | End sector
––––––––––––––––––––––––––––-
1 | 0:00.32 | 6:55.38 | 32 | 31194
2 | 6:55.70 | 2:26.37 | 31195 | 42181
3 | 9:22.32 | 0:51.25 | 42182 | 46031
4 | 10:13.57 | 4:44.50 | 46032 | 67381
5 | 14:58.32 | 0:46.60 | 67382 | 70891
6 | 15:45.17 | 1:19.15 | 70892 | 76831
7 | 17:04.32 | 5:49.25 | 76832 | 103031
8 | 22:53.57 | 0:29.13 | 103032 | 105219
9 | 23:22.70 | 0:58.37 | 105220 | 109606
10 | 24:21.32 | 4:54.50 | 109607 | 131706
11 | 29:16.07 | 0:53.45 | 131707 | 135726
12 | 30:09.52 | 0:49.55 | 135727 | 139456
13 | 30:59.32 | 3:30.50 | 139457 | 155256
14 | 34:30.07 | 1:12.63 | 155257 | 160719
15 | 35:42.70 | 1:02.62 | 160720 | 165431
16 | 36:45.57 | 0:22.45 | 165432 | 167126
17 | 37:08.27 | 1:53.05 | 167127 | 175606
18 | 39:01.32 | 4:33.38 | 175607 | 196119
19 | 43:34.70 | 0:45.25 | 196120 | 199519
20 | 44:20.20 | 3:11.12 | 199520 | 213856


Range status and errors

Selected range

Filename C:\EACRip\EASTER\Bach - The Great Choral Masterpieces (Peter Schreier) [Philips, 12CD]\CD 03 - Christmas III\Bach - Weihnachts-Oratorium (Disc 3) - Peter Schreier.wav

Peak level 99.7 %
Extraction speed 3.0 X
Range quality 100.0 %
Test CRC BDD85D37
Copy CRC BDD85D37
Copy OK

No errors occurred


AccurateRip summary

Track 1 accurately ripped (confidence 3) [1C0BD5F0] (AR v2)
Track 2 accurately ripped (confidence 3) [A811DDE0] (AR v2)
Track 3 accurately ripped (confidence 3) [891BB922] (AR v2)
Track 4 accurately ripped (confidence 3) [74405F1B] (AR v2)
Track 5 accurately ripped (confidence 3) [22979BAB] (AR v2)
Track 6 accurately ripped (confidence 3) [321CA692] (AR v2)
Track 7 accurately ripped (confidence 3) [405DBA53] (AR v2)
Track 8 accurately ripped (confidence 3) [B4CA6C45] (AR v2)
Track 9 accurately ripped (confidence 3) [572A1DB0] (AR v2)
Track 10 accurately ripped (confidence 3) [0D4979CE] (AR v2)
Track 11 accurately ripped (confidence 3) [BEF2AB57] (AR v2)
Track 12 accurately ripped (confidence 3) [977B352A] (AR v2)
Track 13 accurately ripped (confidence 3) [CFF9CDED] (AR v2)
Track 14 accurately ripped (confidence 3) [4060710D] (AR v2)
Track 15 accurately ripped (confidence 3) [F6D85A71] (AR v2)
Track 16 accurately ripped (confidence 3) [20281C99] (AR v2)
Track 17 accurately ripped (confidence 3) [E5010A84] (AR v2)
Track 18 accurately ripped (confidence 3) [D2F4E7A3] (AR v2)
Track 19 accurately ripped (confidence 3) [B907C8EA] (AR v2)
Track 20 accurately ripped (confidence 3) [9BB7A619] (AR v2)

All tracks accurately ripped

End of status report

–– CUETools DB Plugin V2.1.6

[CTDB TOCID: wVt_ajyK6aUHNDRAuSeGn2mLmvE-] found
Submit result: wVt_ajyK6aUHNDRAuSeGn2mLmvE- has been confirmed
Track | CTDB Status
1 | (4/4) Accurately ripped
2 | (4/4) Accurately ripped
3 | (4/4) Accurately ripped
4 | (4/4) Accurately ripped
5 | (4/4) Accurately ripped
6 | (4/4) Accurately ripped
7 | (4/4) Accurately ripped
8 | (4/4) Accurately ripped
9 | (4/4) Accurately ripped
10 | (4/4) Accurately ripped
11 | (4/4) Accurately ripped
12 | (4/4) Accurately ripped
13 | (4/4) Accurately ripped
14 | (4/4) Accurately ripped
15 | (4/4) Accurately ripped
16 | (4/4) Accurately ripped
17 | (4/4) Accurately ripped
18 | (4/4) Accurately ripped
19 | (4/4) Accurately ripped
20 | (4/4) Accurately ripped


==== Log checksum CB9820036CDB42BCF7B319640C7E1E7886FF92768B5DE12734741520613A66B2 ====


Exact Audio Copy V1.3 from 2. September 2016

EAC extraction logfile from 19. February 2020, 15:02

Peter Schreier, Robert Holl, Egbert Junghanns, Andreas Scheibner, Ekkehard Wagner, Andrea Ihle, Roberta Alexander, Marjana Lipo / Bach - Johannes-Passion (Disc 1)

Used drive : ATAPI iHAS124 F Adapter: 1 ID: 0

Read mode : Secure
Utilize accurate stream : Yes
Defeat audio cache : Yes
Make use of C2 pointers : No

Read offset correction : 6
Overread into Lead-In and Lead-Out : No
Fill up missing offset samples with silence : Yes
Delete leading and trailing silent blocks : No
Null samples used in CRC calculations : Yes
Used interface : Native Win32 interface for Win NT & 2000

Used output format : User Defined Encoder
Selected bitrate : 1024 kBit/s
Quality : High
Add ID3 tag : No
Command line compressor : C:\Program Files (x86)\Exact Audio Copy\FLAC\FLAC.EXE
Additional command line options : -6 -V -T "ARTIST=%artist%" -T "TITLE=%title%" -T "ALBUM=%albumtitle%" -T "DATE=%year%" -T "TRACKNUMBER=%tracknr%" -T "GENRE=%genre%" -T "COMMENT=%comment%" -T "BAND=%albuminterpret%" -T "ALBUMARTIST=%albuminterpret%" -T "COMPOSER=%composer%" %haslyrics%–tag-from-file=LYRICS="%lyricsfile%"%haslyrics% -T "DISCNUMBER=%cdnumber%" -T "TOTALDISCS=%totalcds%" -T "TOTALTRACKS=%numtracks%" %hascover%–picture="%coverfile%"%hascover% %source% -o %dest%


TOC of the extracted CD

Track | Start | Length | Start sector | End sector
––––––––––––––––––––––––––––-
1 | 0:00.33 | 9:48.00 | 33 | 44132
2 | 9:48.33 | 2:33.25 | 44133 | 55632
3 | 12:21.58 | 0:48.00 | 55633 | 59232
4 | 13:09.58 | 1:19.62 | 59233 | 65219
5 | 14:29.45 | 0:51.25 | 65220 | 69069
6 | 15:20.70 | 0:44.38 | 69070 | 72407
7 | 16:05.33 | 4:46.00 | 72408 | 93857
8 | 20:51.33 | 0:13.62 | 93858 | 94894
9 | 21:05.20 | 3:45.13 | 94895 | 111782
10 | 24:50.33 | 3:21.37 | 111783 | 126894
11 | 28:11.70 | 1:38.38 | 126895 | 134282
12 | 29:50.33 | 2:08.00 | 134283 | 143882
13 | 31:58.33 | 2:21.00 | 143883 | 154457
14 | 34:19.33 | 1:09.00 | 154458 | 159632
15 | 35:28.33 | 1:02.00 | 159633 | 164282
16 | 36:30.33 | 4:06.50 | 164283 | 182782
17 | 40:37.08 | 1:31.37 | 182783 | 189644
18 | 42:08.45 | 2:09.63 | 189645 | 199382
19 | 44:18.33 | 2:20.00 | 199383 | 209882
20 | 46:38.33 | 7:49.00 | 209883 | 245057
21 | 54:27.33 | 5:40.37 | 245058 | 270594
22 | 60:07.70 | 0:50.63 | 270595 | 274407
23 | 60:58.58 | 3:59.17 | 274408 | 292349
24 | 64:58.00 | 4:11.33 | 292350 | 311207


Range status and errors

Selected range

Filename C:\EACRip\EASTER\Bach - The Great Choral Masterpieces (Peter Schreier) [Philips, 12CD]\CD 04 - Johannes I\Bach - Johannes-Passion (Disc 1) - Peter Schreier.wav

Peak level 97.4 %
Extraction speed 3.4 X
Range quality 100.0 %
Test CRC 9A0A3C6C
Copy CRC 9A0A3C6C
Copy OK

No errors occurred


AccurateRip summary

Track 1 accurately ripped (confidence 3) [2D5914BD] (AR v2)
Track 2 accurately ripped (confidence 3) [BD2D9FB4] (AR v2)
Track 3 accurately ripped (confidence 3) [69231233] (AR v2)
Track 4 accurately ripped (confidence 3) [3708DC67] (AR v2)
Track 5 accurately ripped (confidence 3) [537E9552] (AR v2)
Track 6 accurately ripped (confidence 3) [0AE4FBEF] (AR v2)
Track 7 accurately ripped (confidence 3) [B15AB180] (AR v2)
Track 8 accurately ripped (confidence 3) [34F6F89E] (AR v2)
Track 9 accurately ripped (confidence 3) [6FB447B2] (AR v2)
Track 10 accurately ripped (confidence 3) [A15A2840] (AR v2)
Track 11 accurately ripped (confidence 3) [6861B3B9] (AR v2)
Track 12 accurately ripped (confidence 3) [263B65DC] (AR v2)
Track 13 accurately ripped (confidence 3) [DD21C650] (AR v2)
Track 14 accurately ripped (confidence 3) [D6569148] (AR v2)
Track 15 accurately ripped (confidence 3) [0C69140F] (AR v2)
Track 16 accurately ripped (confidence 3) [98CA6441] (AR v2)
Track 17 accurately ripped (confidence 3) [1E3A7AA1] (AR v2)
Track 18 accurately ripped (confidence 3) [46206DB1] (AR v2)
Track 19 accurately ripped (confidence 3) [5D4C35C3] (AR v2)
Track 20 accurately ripped (confidence 3) [081C4305] (AR v2)
Track 21 accurately ripped (confidence 3) [3F651690] (AR v2)
Track 22 accurately ripped (confidence 3) [0BC9E963] (AR v2)
Track 23 accurately ripped (confidence 3) [53A6DCD7] (AR v2)
Track 24 accurately ripped (confidence 3) [CB46B9DA] (AR v2)

All tracks accurately ripped

End of status report

–– CUETools DB Plugin V2.1.6

[CTDB TOCID: j_gASo5KCG2q1vDjXsITA1mT.KU-] found
Submit result: j_gASo5KCG2q1vDjXsITA1mT.KU- has been confirmed
Track | CTDB Status
1 | (62/62) Accurately ripped
2 | (62/62) Accurately ripped
3 | (62/62) Accurately ripped
4 | (62/62) Accurately ripped
5 | (62/62) Accurately ripped
6 | (62/62) Accurately ripped
7 | (62/62) Accurately ripped
8 | (62/62) Accurately ripped
9 | (62/62) Accurately ripped
10 | (62/62) Accurately ripped
11 | (62/62) Accurately ripped
12 | (62/62) Accurately ripped
13 | (62/62) Accurately ripped
14 | (61/62) Accurately ripped
15 | (62/62) Accurately ripped
16 | (62/62) Accurately ripped
17 | (62/62) Accurately ripped
18 | (62/62) Accurately ripped
19 | (62/62) Accurately ripped
20 | (62/62) Accurately ripped
21 | (61/62) Accurately ripped
22 | (62/62) Accurately ripped
23 | (62/62) Accurately ripped
24 | (61/62) Accurately ripped


==== Log checksum CE8703C1F8F7AFA3ED7AF60F7D6B05BDA2077604A90E378550885AB4B286B532 ====


Exact Audio Copy V1.3 from 2. September 2016

EAC extraction logfile from 20. February 2020, 0:35

Peter Schreier, Robert Holl, Egbert Junghanns, Andreas Scheibner, Ekkehard Wagner, Andrea Ihle, Roberta Alexander, Marjana Lipo / Bach - Johannes-Passion (Disc 2)

Used drive : ATAPI iHAS124 F Adapter: 1 ID: 0

Read mode : Secure
Utilize accurate stream : Yes
Defeat audio cache : Yes
Make use of C2 pointers : No

Read offset correction : 6
Overread into Lead-In and Lead-Out : No
Fill up missing offset samples with silence : Yes
Delete leading and trailing silent blocks : No
Null samples used in CRC calculations : Yes
Used interface : Native Win32 interface for Win NT & 2000

Used output format : User Defined Encoder
Selected bitrate : 1024 kBit/s
Quality : High
Add ID3 tag : No
Command line compressor : C:\Program Files (x86)\Exact Audio Copy\FLAC\FLAC.EXE
Additional command line options : -6 -V -T "ARTIST=%artist%" -T "TITLE=%title%" -T "ALBUM=%albumtitle%" -T "DATE=%year%" -T "TRACKNUMBER=%tracknr%" -T "GENRE=%genre%" -T "COMMENT=%comment%" -T "BAND=%albuminterpret%" -T "ALBUMARTIST=%albuminterpret%" -T "COMPOSER=%composer%" %haslyrics%–tag-from-file=LYRICS="%lyricsfile%"%haslyrics% -T "DISCNUMBER=%cdnumber%" -T "TOTALDISCS=%totalcds%" -T "TOTALTRACKS=%numtracks%" %hascover%–picture="%coverfile%"%hascover% %source% -o %dest%


TOC of the extracted CD

Track | Start | Length | Start sector | End sector
––––––––––––––––––––––––––––-
1 | 0:00.33 | 1:55.62 | 33 | 8719
2 | 1:56.20 | 0:55.38 | 8720 | 12882
3 | 2:51.58 | 3:37.50 | 12883 | 29207
4 | 6:29.33 | 1:08.00 | 29208 | 34307
5 | 7:37.33 | 1:22.00 | 34308 | 40457
6 | 8:59.33 | 5:00.00 | 40458 | 62957
7 | 13:59.33 | 0:24.00 | 62958 | 64757
8 | 14:23.33 | 4:37.25 | 64758 | 85557
9 | 19:00.58 | 0:29.25 | 85558 | 87757
10 | 19:30.08 | 0:47.25 | 87758 | 91307
11 | 20:17.33 | 6:44.25 | 91308 | 121632
12 | 27:01.58 | 2:11.62 | 121633 | 131519
13 | 29:13.45 | 1:01.50 | 131520 | 136144
14 | 30:15.20 | 1:55.63 | 136145 | 144832
15 | 32:11.08 | 7:07.25 | 144833 | 176882
16 | 39:18.33 | 2:07.00 | 176883 | 186407
17 | 41:25.33 | 4:21.00 | 186408 | 205982
18 | 45:46.33 | 4:53.00 | 205983 | 227957
19 | 50:39.33 | 5:59.00 | 227958 | 254882


Range status and errors

Selected range

Filename C:\EACRip\EASTER\Bach - The Great Choral Masterpieces (Peter Schreier) [Philips, 12CD]\CD 05 - Johannes II\Bach - Johannes-Passion (Disc 2) - Peter Schreier.wav

Peak level 83.4 %
Extraction speed 3.1 X
Range quality 100.0 %
Test CRC 1199CDDC
Copy CRC 1199CDDC
Copy OK

No errors occurred


AccurateRip summary

Track 1 accurately ripped (confidence 3) [C5211D14] (AR v2)
Track 2 accurately ripped (confidence 3) [99F9ACF0] (AR v2)
Track 3 accurately ripped (confidence 3) [E6ED1AC9] (AR v2)
Track 4 accurately ripped (confidence 3) [18587963] (AR v2)
Track 5 accurately ripped (confidence 3) [28F1C977] (AR v2)
Track 6 accurately ripped (confidence 3) [EFB93D63] (AR v2)
Track 7 accurately ripped (confidence 3) [F05ED996] (AR v2)
Track 8 accurately ripped (confidence 3) [446FABB9] (AR v2)
Track 9 accurately ripped (confidence 3) [CB0C71CD] (AR v2)
Track 10 accurately ripped (confidence 3) [958538D0] (AR v2)
Track 11 accurately ripped (confidence 2) [43CDE90F] (AR v2)
Track 12 accurately ripped (confidence 2) [EE5A20EA] (AR v2)
Track 13 accurately ripped (confidence 2) [D9D23310] (AR v2)
Track 14 accurately ripped (confidence 2) [A86F90F7] (AR v2)
Track 15 accurately ripped (confidence 2) [6B5509CB] (AR v2)
Track 16 accurately ripped (confidence 2) [4F3B24B1] (AR v2)
Track 17 accurately ripped (confidence 2) [92102C57] (AR v2)
Track 18 accurately ripped (confidence 2) [DE05FF4B] (AR v2)
Track 19 accurately ripped (confidence 2) [09260CE9] (AR v2)

All tracks accurately ripped

End of status report

–– CUETools DB Plugin V2.1.6

[CTDB TOCID: vDotu7TcafF7_iy.UJucGOvJ30c-] found
Submit result: vDotu7TcafF7_iy.UJucGOvJ30c- has been confirmed
Track | CTDB Status
1 | (61/61) Accurately ripped
2 | (61/61) Accurately ripped
3 | (61/61) Accurately ripped
4 | (61/61) Accurately ripped
5 | (61/61) Accurately ripped
6 | (61/61) Accurately ripped
7 | (61/61) Accurately ripped
8 | (61/61) Accurately ripped
9 | (61/61) Accurately ripped
10 | (61/61) Accurately ripped
11 | (61/61) Accurately ripped
12 | (61/61) Accurately ripped
13 | (61/61) Accurately ripped
14 | (61/61) Accurately ripped
15 | (61/61) Accurately ripped
16 | (60/61) Accurately ripped
17 | (60/61) Accurately ripped
18 | (61/61) Accurately ripped
19 | (13/61) Accurately ripped, or (45/61) differs in 3733 samples @05:58:42-05:59:24
If you are sure that your rip contains errors, you can use CUETools to repair it.


==== Log checksum 81715DA3CCC253D55E46E9049FE1FAE1BD2EDB3049A3686E5E649D9719F1450E ====


Exact Audio Copy V1.3 from 2. September 2016

EAC extraction logfile from 21. February 2020, 0:09

Peter Schreier, Theo Adam, Lucia Popp, Marjana Lipovšek, Eberhard Büchner, Robert Holl / Bach - Matthäus-Passion (Disc 1)

Used drive : LENOVO USB_SATA_Burner4 Adapter: 1 ID: 0

Read mode : Secure
Utilize accurate stream : Yes
Defeat audio cache : Yes
Make use of C2 pointers : No

Read offset correction : 6
Overread into Lead-In and Lead-Out : No
Fill up missing offset samples with silence : Yes
Delete leading and trailing silent blocks : No
Null samples used in CRC calculations : Yes
Used interface : Native Win32 interface for Win NT & 2000

Used output format : User Defined Encoder
Selected bitrate : 1024 kBit/s
Quality : High
Add ID3 tag : No
Command line compressor : C:\Program Files (x86)\Exact Audio Copy\FLAC\FLAC.EXE
Additional command line options : -6 -V -T "ARTIST=%artist%" -T "TITLE=%title%" -T "ALBUM=%albumtitle%" -T "DATE=%year%" -T "TRACKNUMBER=%tracknr%" -T "GENRE=%genre%" -T "COMMENT=%comment%" -T "BAND=%albuminterpret%" -T "ALBUMARTIST=%albuminterpret%" -T "COMPOSER=%composer%" %haslyrics%–tag-from-file=LYRICS="%lyricsfile%"%haslyrics% -T "DISCNUMBER=%cdnumber%" -T "TOTALDISCS=%totalcds%" -T "TOTALTRACKS=%numtracks%" %hascover%–picture="%coverfile%"%hascover% %source% -o %dest%


TOC of the extracted CD

Track | Start | Length | Start sector | End sector
––––––––––––––––––––––––––––-
1 | 0:00.33 | 7:53.00 | 33 | 35507
2 | 7:53.33 | 0:45.20 | 35508 | 38902
3 | 8:38.53 | 0:58.22 | 38903 | 43274
4 | 9:37.00 | 3:10.13 | 43275 | 57537
5 | 12:47.13 | 1:01.17 | 57538 | 62129
6 | 13:48.30 | 4:19.28 | 62130 | 81582
7 | 18:07.58 | 0:38.25 | 81583 | 84457
8 | 18:46.08 | 4:30.10 | 84458 | 104717
9 | 23:16.18 | 2:27.00 | 104718 | 115742
10 | 25:43.18 | 0:56.65 | 115743 | 120007
11 | 26:40.08 | 3:23.25 | 120008 | 135257
12 | 30:03.33 | 1:30.10 | 135258 | 142017
13 | 31:33.43 | 3:48.65 | 142018 | 159182
14 | 35:22.33 | 1:10.50 | 159183 | 164482
15 | 36:33.08 | 1:08.52 | 164483 | 169634
16 | 37:41.60 | 1:12.35 | 169635 | 175069
17 | 38:54.20 | 1:09.73 | 175070 | 180317
18 | 40:04.18 | 1:58.15 | 180318 | 189182
19 | 42:02.33 | 1:47.40 | 189183 | 197247
20 | 43:49.73 | 5:20.42 | 197248 | 221289
21 | 49:10.40 | 0:48.13 | 221290 | 224902
22 | 49:58.53 | 1:06.20 | 224903 | 229872
23 | 51:04.73 | 4:21.35 | 229873 | 249482
24 | 55:26.33 | 1:24.07 | 249483 | 255789
25 | 56:50.40 | 1:18.68 | 255790 | 261707


Range status and errors

Selected range

Filename C:\EACRip\CD 06\Bach - Matthaus-Passion (Disc 1) - Peter Schreier.wav

Peak level 85.7 %
Extraction speed 1.8 X
Range quality 100.0 %
Test CRC F7418B81
Copy CRC F7418B81
Copy OK

No errors occurred


AccurateRip summary

Track 1 accurately ripped (confidence 3) [710FB179] (AR v2)
Track 2 accurately ripped (confidence 3) [9B560A92] (AR v2)
Track 3 accurately ripped (confidence 3) [C24A4B04] (AR v2)
Track 4 accurately ripped (confidence 3) [5B6E5069] (AR v2)
Track 5 accurately ripped (confidence 3) [E3EB3B94] (AR v2)
Track 6 accurately ripped (confidence 3) [EFC5E49C] (AR v2)
Track 7 accurately ripped (confidence 3) [0728C391] (AR v2)
Track 8 accurately ripped (confidence 3) [72330522] (AR v2)
Track 9 accurately ripped (confidence 3) [2BF29775] (AR v2)
Track 10 accurately ripped (confidence 3) [2A355029] (AR v2)
Track 11 accurately ripped (confidence 3) [2C5E8488] (AR v2)
Track 12 accurately ripped (confidence 3) [6B6EEB95] (AR v2)
Track 13 accurately ripped (confidence 3) [D6438355] (AR v2)
Track 14 accurately ripped (confidence 3) [49B1FBB6] (AR v2)
Track 15 accurately ripped (confidence 3) [08B29FF4] (AR v2)
Track 16 accurately ripped (confidence 3) [7A303259] (AR v2)
Track 17 accurately ripped (confidence 3) [DDB7ADC1] (AR v2)
Track 18 accurately ripped (confidence 3) [13541025] (AR v2)
Track 19 accurately ripped (confidence 3) [6BEFFF45] (AR v2)
Track 20 accurately ripped (confidence 3) [4B2FD2D0] (AR v2)
Track 21 accurately ripped (confidence 3) [3DCAE0A5] (AR v2)
Track 22 accurately ripped (confidence 3) [1AC88CBF] (AR v2)
Track 23 accurately ripped (confidence 3) [72BDE7D8] (AR v2)
Track 24 accurately ripped (confidence 3) [9F61521F] (AR v2)
Track 25 accurately ripped (confidence 2) [27229772] (AR v2)

All tracks accurately ripped

End of status report

–– CUETools DB Plugin V2.1.6

[CTDB TOCID: N6MQ.U3RSVNFozyLP5FGxG2LifU-] found
Submit result: N6MQ.U3RSVNFozyLP5FGxG2LifU- has been confirmed
Track | CTDB Status
1 | (16/16) Accurately ripped
2 | (16/16) Accurately ripped
3 | (16/16) Accurately ripped
4 | (16/16) Accurately ripped
5 | (16/16) Accurately ripped
6 | (16/16) Accurately ripped
7 | (16/16) Accurately ripped
8 | (15/16) Accurately ripped
9 | (16/16) Accurately ripped
10 | (16/16) Accurately ripped
11 | (16/16) Accurately ripped
12 | (16/16) Accurately ripped
13 | (16/16) Accurately ripped
14 | (16/16) Accurately ripped
15 | (16/16) Accurately ripped
16 | (16/16) Accurately ripped
17 | (16/16) Accurately ripped
18 | (16/16) Accurately ripped
19 | (16/16) Accurately ripped
20 | (16/16) Accurately ripped
21 | (16/16) Accurately ripped
22 | (16/16) Accurately ripped
23 | (15/16) Accurately ripped
24 | (16/16) Accurately ripped
25 | (16/16) Accurately ripped


==== Log checksum 4261126C28C55C04E2B059E062DECB8DFE473BEFDDC37E105FDC25606DFA8AEC ====


Exact Audio Copy V1.3 from 2. September 2016

EAC extraction logfile from 21. February 2020, 0:24

Peter Schreier, Theo Adam, Lucia Popp, Marjana Lipovšek, Eberhard Büchner, Robert Holl / Bach - Matthäus-Passion (Disc 2)

Used drive : ATAPI iHAS124 F Adapter: 1 ID: 0

Read mode : Secure
Utilize accurate stream : Yes
Defeat audio cache : Yes
Make use of C2 pointers : No

Read offset correction : 6
Overread into Lead-In and Lead-Out : No
Fill up missing offset samples with silence : Yes
Delete leading and trailing silent blocks : No
Null samples used in CRC calculations : Yes
Used interface : Native Win32 interface for Win NT & 2000

Used output format : User Defined Encoder
Selected bitrate : 1024 kBit/s
Quality : High
Add ID3 tag : No
Command line compressor : C:\Program Files (x86)\Exact Audio Copy\FLAC\FLAC.EXE
Additional command line options : -6 -V -T "ARTIST=%artist%" -T "TITLE=%title%" -T "ALBUM=%albumtitle%" -T "DATE=%year%" -T "TRACKNUMBER=%tracknr%" -T "GENRE=%genre%" -T "COMMENT=%comment%" -T "BAND=%albuminterpret%" -T "ALBUMARTIST=%albuminterpret%" -T "COMPOSER=%composer%" %haslyrics%–tag-from-file=LYRICS="%lyricsfile%"%haslyrics% -T "DISCNUMBER=%cdnumber%" -T "TOTALDISCS=%totalcds%" -T "TOTALTRACKS=%numtracks%" %hascover%–picture="%coverfile%"%hascover% %source% -o %dest%


TOC of the extracted CD

Track | Start | Length | Start sector | End sector
––––––––––––––––––––––––––––-
1 | 0:00.32 | 2:40.00 | 32 | 12031
2 | 2:40.32 | 4:42.13 | 12032 | 33194
3 | 7:22.45 | 2:44.15 | 33195 | 45509
4 | 10:06.60 | 6:18.47 | 45510 | 73906
5 | 16:25.32 | 4:03.53 | 73907 | 92184
6 | 20:29.10 | 1:09.02 | 92185 | 97361
7 | 21:38.12 | 0:49.25 | 97362 | 101061
8 | 22:27.37 | 1:22.58 | 101062 | 107269
9 | 23:50.20 | 1:14.40 | 107270 | 112859
10 | 25:04.60 | 3:22.57 | 112860 | 128066
11 | 28:27.42 | 2:13.25 | 128067 | 138066
12 | 30:40.67 | 1:01.35 | 138067 | 142676
13 | 31:42.27 | 2:35.25 | 142677 | 154326
14 | 34:17.52 | 6:48.33 | 154327 | 184959
15 | 41:06.10 | 1:10.42 | 184960 | 190251
16 | 42:16.52 | 1:45.03 | 190252 | 198129
17 | 44:01.55 | 3:10.27 | 198130 | 212406
18 | 47:12.07 | 2:19.05 | 212407 | 222836
19 | 49:31.12 | 1:15.10 | 222837 | 228471
20 | 50:46.22 | 2:30.63 | 228472 | 239784
21 | 53:17.10 | 1:02.05 | 239785 | 244439
22 | 54:19.15 | 0:17.02 | 244440 | 245716
23 | 54:36.17 | 1:17.15 | 245717 | 251506
24 | 55:53.32 | 4:54.00 | 251507 | 273556


Range status and errors

Selected range

Filename C:\EACRip\EASTER\Bach - The Great Choral Masterpieces (Peter Schreier) [Philips, 12CD]\CD 07 - Matthaus II\Bach - Matthaus-Passion (Disc 2) - Peter Schreier.wav

Peak level 94.5 %
Extraction speed 3.3 X
Range quality 100.0 %
Test CRC 2DEE2FBF
Copy CRC 2DEE2FBF
Copy OK

No errors occurred


AccurateRip summary

Track 1 accurately ripped (confidence 3) [F71AB49E] (AR v2)
Track 2 accurately ripped (confidence 3) [A2B97A9B] (AR v2)
Track 3 accurately ripped (confidence 3) [92B9FA28] (AR v2)
Track 4 accurately ripped (confidence 3) [A69F719C] (AR v2)
Track 5 accurately ripped (confidence 3) [84B61694] (AR v2)
Track 6 accurately ripped (confidence 3) [452117E6] (AR v2)
Track 7 accurately ripped (confidence 3) [4EB945DC] (AR v2)
Track 8 accurately ripped (confidence 3) [190B7548] (AR v2)
Track 9 accurately ripped (confidence 3) [117C1D35] (AR v2)
Track 10 accurately ripped (confidence 3) [B94B2EF2] (AR v2)
Track 11 accurately ripped (confidence 3) [C9641608] (AR v2)
Track 12 accurately ripped (confidence 3) [C75DBF26] (AR v2)
Track 13 accurately ripped (confidence 3) [57FC432E] (AR v2)
Track 14 accurately ripped (confidence 3) [D05488AD] (AR v2)
Track 15 accurately ripped (confidence 3) [E3417E6B] (AR v2)
Track 16 accurately ripped (confidence 3) [87ED9985] (AR v2)
Track 17 accurately ripped (confidence 3) [83FAAC0D] (AR v2)
Track 18 accurately ripped (confidence 3) [E1B45F40] (AR v2)
Track 19 accurately ripped (confidence 3) [BA48841F] (AR v2)
Track 20 accurately ripped (confidence 3) [02A5EBE2] (AR v2)
Track 21 accurately ripped (confidence 3) [4801DFE9] (AR v2)
Track 22 accurately ripped (confidence 3) [D57C715E] (AR v2)
Track 23 accurately ripped (confidence 3) [0C65FD09] (AR v2)
Track 24 accurately ripped (confidence 3) [37C6BAD0] (AR v2)

All tracks accurately ripped

End of status report

–– CUETools DB Plugin V2.1.6

[CTDB TOCID: pVyOuLadoUiSH0BfYVF3wtgmJOQ-] found
Submit result: pVyOuLadoUiSH0BfYVF3wtgmJOQ- has been confirmed
Track | CTDB Status
1 | (8/8) Accurately ripped
2 | (8/8) Accurately ripped
3 | (8/8) Accurately ripped
4 | (8/8) Accurately ripped
5 | (8/8) Accurately ripped
6 | (8/8) Accurately ripped
7 | (8/8) Accurately ripped
8 | (8/8) Accurately ripped
9 | (8/8) Accurately ripped
10 | (8/8) Accurately ripped
11 | (8/8) Accurately ripped
12 | (8/8) Accurately ripped
13 | (8/8) Accurately ripped
14 | (8/8) Accurately ripped
15 | (8/8) Accurately ripped
16 | (8/8) Accurately ripped
17 | (8/8) Accurately ripped
18 | (8/8) Accurately ripped
19 | (8/8) Accurately ripped
20 | (8/8) Accurately ripped
21 | (8/8) Accurately ripped
22 | (8/8) Accurately ripped
23 | (8/8) Accurately ripped
24 | (8/8) Accurately ripped


==== Log checksum B118084E28AE67EBEEAA09570857D928F56254722E0538308D252AB4579DB965 ====


Exact Audio Copy V1.3 from 2. September 2016

EAC extraction logfile from 21. February 2020, 1:31

Peter Schreier, Theo Adam, Lucia Popp, Marjana Lipovšek, Eberhard Büchner, Robert Holl / Bach - Matthäus-Passion (Disc 3)

Used drive : ATAPI iHAS124 F Adapter: 1 ID: 0

Read mode : Secure
Utilize accurate stream : Yes
Defeat audio cache : Yes
Make use of C2 pointers : No

Read offset correction : 6
Overread into Lead-In and Lead-Out : No
Fill up missing offset samples with silence : Yes
Delete leading and trailing silent blocks : No
Null samples used in CRC calculations : Yes
Used interface : Native Win32 interface for Win NT & 2000

Used output format : User Defined Encoder
Selected bitrate : 1024 kBit/s
Quality : High
Add ID3 tag : No
Command line compressor : C:\Program Files (x86)\Exact Audio Copy\FLAC\FLAC.EXE
Additional command line options : -6 -V -T "ARTIST=%artist%" -T "TITLE=%title%" -T "ALBUM=%albumtitle%" -T "DATE=%year%" -T "TRACKNUMBER=%tracknr%" -T "GENRE=%genre%" -T "COMMENT=%comment%" -T "BAND=%albuminterpret%" -T "ALBUMARTIST=%albuminterpret%" -T "COMPOSER=%composer%" %haslyrics%–tag-from-file=LYRICS="%lyricsfile%"%haslyrics% -T "DISCNUMBER=%cdnumber%" -T "TOTALDISCS=%totalcds%" -T "TOTALTRACKS=%numtracks%" %hascover%–picture="%coverfile%"%hascover% %source% -o %dest%


TOC of the extracted CD

Track | Start | Length | Start sector | End sector
––––––––––––––––––––––––––––-
1 | 0:00.32 | 1:50.25 | 32 | 8306
2 | 1:50.57 | 0:51.25 | 8307 | 12156
3 | 2:42.07 | 6:56.25 | 12157 | 43381
4 | 9:38.32 | 1:10.43 | 43382 | 48674
5 | 10:49.00 | 2:51.10 | 48675 | 61509
6 | 13:40.10 | 0:51.60 | 61510 | 65394
7 | 14:31.70 | 0:42.62 | 65395 | 68606
8 | 15:14.57 | 6:49.13 | 68607 | 99294
9 | 22:03.70 | 3:35.02 | 99295 | 115421
10 | 25:38.72 | 1:52.20 | 115422 | 123841
11 | 27:31.17 | 3:37.15 | 123842 | 140131
12 | 31:08.32 | 2:26.00 | 140132 | 151081
13 | 33:34.32 | 1:43.00 | 151082 | 158806
14 | 35:17.32 | 2:53.00 | 158807 | 171781
15 | 38:10.32 | 2:01.63 | 171782 | 180919
16 | 40:12.20 | 6:36.12 | 180920 | 210631
17 | 46:48.32 | 2:39.00 | 210632 | 222556
18 | 49:27.32 | 2:29.63 | 222557 | 233794
19 | 51:57.20 | 6:09.12 | 233795 | 261481


Range status and errors

Selected range

Filename C:\EACRip\EASTER\Bach - The Great Choral Masterpieces (Peter Schreier) [Philips, 12CD]\CD 08 - Matthaus III\Bach - Matthaus-Passion (Disc 3) - Peter Schreier.wav

Peak level 93.8 %
Extraction speed 8.4 X
Range quality 100.0 %
Test CRC A65D5727
Copy CRC A65D5727
Copy OK

No errors occurred


AccurateRip summary

Track 1 accurately ripped (confidence 3) [B44808DD] (AR v2)
Track 2 accurately ripped (confidence 3) [5E28B142] (AR v2)
Track 3 accurately ripped (confidence 3) [1EF966DE] (AR v2)
Track 4 accurately ripped (confidence 3) [FCD80BD0] (AR v2)
Track 5 accurately ripped (confidence 3) [AB051B31] (AR v2)
Track 6 accurately ripped (confidence 3) [46619FB8] (AR v2)
Track 7 accurately ripped (confidence 3) [343B0B07] (AR v2)
Track 8 accurately ripped (confidence 3) [8506837F] (AR v2)
Track 9 accurately ripped (confidence 3) [48CB8680] (AR v2)
Track 10 accurately ripped (confidence 3) [8BF2B6EF] (AR v2)
Track 11 accurately ripped (confidence 3) [0D3237B8] (AR v2)
Track 12 accurately ripped (confidence 3) [A5536822] (AR v2)
Track 13 accurately ripped (confidence 3) [F707C52B] (AR v2)
Track 14 accurately ripped (confidence 3) [8D2D4280] (AR v2)
Track 15 accurately ripped (confidence 3) [FFC1E3F1] (AR v2)
Track 16 accurately ripped (confidence 3) [12C43A29] (AR v2)
Track 17 accurately ripped (confidence 3) [2A9BB582] (AR v2)
Track 18 accurately ripped (confidence 3) [C6D29067] (AR v2)
Track 19 accurately ripped (confidence 3) [DE911ABA] (AR v2)

All tracks accurately ripped

End of status report

–– CUETools DB Plugin V2.1.6

[CTDB TOCID: FNARTnmO_0tKSJNsly2EzwqczDM-] found
Submit result: FNARTnmO_0tKSJNsly2EzwqczDM- has been confirmed
Track | CTDB Status
1 | (8/8) Accurately ripped
2 | (8/8) Accurately ripped
3 | (8/8) Accurately ripped
4 | (8/8) Accurately ripped
5 | (7/8) Accurately ripped
6 | (8/8) Accurately ripped
7 | (8/8) Accurately ripped
8 | (8/8) Accurately ripped
9 | (8/8) Accurately ripped
10 | (8/8) Accurately ripped
11 | (8/8) Accurately ripped
12 | (8/8) Accurately ripped
13 | (8/8) Accurately ripped
14 | (8/8) Accurately ripped
15 | (8/8) Accurately ripped
16 | (8/8) Accurately ripped
17 | (8/8) Accurately ripped
18 | (8/8) Accurately ripped
19 | (8/8) Accurately ripped


==== Log checksum C07826B7850FA68EBC5214B7B3EA7AD92EB916E5AC91E3957CC02F825698BD1F ====


Exact Audio Copy V1.3 from 2. September 2016

EAC extraction logfile from 21. February 2020, 2:42

Barbara Bonney, Birgit Remmert, Rainer Trost, Olaf Bär / Bach - Magnificat BWV 243. Missa brevis BWV 234

Used drive : ATAPI iHAS124 F Adapter: 1 ID: 0

Read mode : Secure
Utilize accurate stream : Yes
Defeat audio cache : Yes
Make use of C2 pointers : No

Read offset correction : 6
Overread into Lead-In and Lead-Out : No
Fill up missing offset samples with silence : Yes
Delete leading and trailing silent blocks : No
Null samples used in CRC calculations : Yes
Used interface : Native Win32 interface for Win NT & 2000

Used output format : User Defined Encoder
Selected bitrate : 1024 kBit/s
Quality : High
Add ID3 tag : No
Command line compressor : C:\Program Files (x86)\Exact Audio Copy\FLAC\FLAC.EXE
Additional command line options : -6 -V -T "ARTIST=%artist%" -T "TITLE=%title%" -T "ALBUM=%albumtitle%" -T "DATE=%year%" -T "TRACKNUMBER=%tracknr%" -T "GENRE=%genre%" -T "COMMENT=%comment%" -T "BAND=%albuminterpret%" -T "ALBUMARTIST=%albuminterpret%" -T "COMPOSER=%composer%" %haslyrics%–tag-from-file=LYRICS="%lyricsfile%"%haslyrics% -T "DISCNUMBER=%cdnumber%" -T "TOTALDISCS=%totalcds%" -T "TOTALTRACKS=%numtracks%" %hascover%–picture="%coverfile%"%hascover% %source% -o %dest%


TOC of the extracted CD

Track | Start | Length | Start sector | End sector
––––––––––––––––––––––––––––-
1 | 0:00.33 | 2:52.00 | 33 | 12932
2 | 2:52.33 | 2:18.00 | 12933 | 23282
3 | 5:10.33 | 2:31.00 | 23283 | 34607
4 | 7:41.33 | 1:21.00 | 34608 | 40682
5 | 9:02.33 | 1:51.00 | 40683 | 49007
6 | 10:53.33 | 3:19.00 | 49008 | 63932
7 | 14:12.33 | 1:54.00 | 63933 | 72482
8 | 16:06.33 | 1:57.00 | 72483 | 81257
9 | 18:03.33 | 2:28.00 | 81258 | 92357
10 | 20:31.33 | 1:54.25 | 92358 | 100932
11 | 22:25.58 | 1:36.50 | 100933 | 108182
12 | 24:02.33 | 1:57.00 | 108183 | 116957
13 | 25:59.33 | 5:39.00 | 116958 | 142382
14 | 31:38.33 | 5:30.00 | 142383 | 167132
15 | 37:08.33 | 5:43.00 | 167133 | 192857
16 | 42:51.33 | 6:38.00 | 192858 | 222707
17 | 49:29.33 | 3:26.62 | 222708 | 238219
18 | 52:56.20 | 3:05.13 | 238220 | 252107


Range status and errors

Selected range

Filename C:\EACRip\EASTER\Bach - The Great Choral Masterpieces (Peter Schreier) [Philips, 12CD]\CD 09 - Magnificat\Bach - Magnificat BWV 243. Missa brevis BWV 234 - Peter Schreier.wav

Peak level 98.0 %
Extraction speed 4.3 X
Range quality 100.0 %
Test CRC 33DCE4D9
Copy CRC 33DCE4D9
Copy OK

No errors occurred


AccurateRip summary

Track 1 accurately ripped (confidence 9) [B7F47B2C] (AR v2)
Track 2 accurately ripped (confidence 9) [FA3E86E1] (AR v2)
Track 3 accurately ripped (confidence 9) [6799962B] (AR v2)
Track 4 accurately ripped (confidence 9) [D65CE24C] (AR v2)
Track 5 accurately ripped (confidence 9) [4362B7E1] (AR v2)
Track 6 accurately ripped (confidence 9) [42436C4C] (AR v2)
Track 7 accurately ripped (confidence 9) [9F29A89E] (AR v2)
Track 8 accurately ripped (confidence 9) [5DE4C3A8] (AR v2)
Track 9 accurately ripped (confidence 9) [E04AB4EB] (AR v2)
Track 10 accurately ripped (confidence 9) [1B6620EE] (AR v2)
Track 11 accurately ripped (confidence 9) [5559B67A] (AR v2)
Track 12 accurately ripped (confidence 9) [EA446898] (AR v2)
Track 13 accurately ripped (confidence 9) [F5B1A170] (AR v2)
Track 14 accurately ripped (confidence 9) [6480A95A] (AR v2)
Track 15 accurately ripped (confidence 9) [12196FAA] (AR v2)
Track 16 accurately ripped (confidence 9) [B0C31E40] (AR v2)
Track 17 accurately ripped (confidence 9) [C19CEC54] (AR v2)
Track 18 accurately ripped (confidence 9) [9DA02417] (AR v2)

All tracks accurately ripped

End of status report

–– CUETools DB Plugin V2.1.6

[CTDB TOCID: fhI6Go90pQE8XLE8NOLQRDiSDL8-] found
Submit result: fhI6Go90pQE8XLE8NOLQRDiSDL8- has been confirmed
Track | CTDB Status
1 | (26/27) Accurately ripped
2 | (26/27) Accurately ripped
3 | (26/27) Accurately ripped
4 | (27/27) Accurately ripped
5 | (27/27) Accurately ripped
6 | (26/27) Accurately ripped
7 | (26/27) Accurately ripped
8 | (26/27) Accurately ripped
9 | (27/27) Accurately ripped
10 | (26/27) Accurately ripped
11 | (27/27) Accurately ripped
12 | (27/27) Accurately ripped
13 | (27/27) Accurately ripped
14 | (27/27) Accurately ripped
15 | (26/27) Accurately ripped
16 | (26/27) Accurately ripped
17 | (26/27) Accurately ripped
18 | (27/27) Accurately ripped


==== Log checksum C5D4FEA16AA21955EF17D8813C8947A15FE743318C441E2D92F49073E13A179E ====


Exact Audio Copy V1.3 from 2. September 2016

EAC extraction logfile from 21. February 2020, 3:36

Barbara Bonney, Birgit Remmert, Rainer Trost, Olaf Bär / Bach - Missae breves

Used drive : ATAPI iHAS124 F Adapter: 1 ID: 0

Read mode : Secure
Utilize accurate stream : Yes
Defeat audio cache : Yes
Make use of C2 pointers : No

Read offset correction : 6
Overread into Lead-In and Lead-Out : No
Fill up missing offset samples with silence : Yes
Delete leading and trailing silent blocks : No
Null samples used in CRC calculations : Yes
Used interface : Native Win32 interface for Win NT & 2000

Used output format : User Defined Encoder
Selected bitrate : 1024 kBit/s
Quality : High
Add ID3 tag : No
Command line compressor : C:\Program Files (x86)\Exact Audio Copy\FLAC\FLAC.EXE
Additional command line options : -6 -V -T "ARTIST=%artist%" -T "TITLE=%title%" -T "ALBUM=%albumtitle%" -T "DATE=%year%" -T "TRACKNUMBER=%tracknr%" -T "GENRE=%genre%" -T "COMMENT=%comment%" -T "BAND=%albuminterpret%" -T "ALBUMARTIST=%albuminterpret%" -T "COMPOSER=%composer%" %haslyrics%–tag-from-file=LYRICS="%lyricsfile%"%haslyrics% -T "DISCNUMBER=%cdnumber%" -T "TOTALDISCS=%totalcds%" -T "TOTALTRACKS=%numtracks%" %hascover%–picture="%coverfile%"%hascover% %source% -o %dest%


TOC of the extracted CD

Track | Start | Length | Start sector | End sector
––––––––––––––––––––––––––––-
1 | 0:00.32 | 4:06.00 | 32 | 18481
2 | 4:06.32 | 5:31.00 | 18482 | 43306
3 | 9:37.32 | 3:06.38 | 43307 | 57294
4 | 12:43.70 | 5:49.37 | 57295 | 83506
5 | 18:33.32 | 3:48.00 | 83507 | 100606
6 | 22:21.32 | 2:55.00 | 100607 | 113731
7 | 25:16.32 | 5:46.30 | 113732 | 139711
8 | 31:02.62 | 3:25.45 | 139712 | 155131
9 | 34:28.32 | 2:43.00 | 155132 | 167356
10 | 37:11.32 | 5:04.00 | 167357 | 190156
11 | 42:15.32 | 4:06.45 | 190157 | 208651
12 | 46:22.02 | 4:42.30 | 208652 | 229831
13 | 51:04.32 | 3:17.00 | 229832 | 244606
14 | 54:21.32 | 4:54.00 | 244607 | 266656
15 | 59:15.32 | 5:05.00 | 266657 | 289531
16 | 64:20.32 | 3:53.00 | 289532 | 307006
17 | 68:13.32 | 5:05.00 | 307007 | 329881
18 | 73:18.32 | 3:48.00 | 329882 | 346981


Range status and errors

Selected range

Filename C:\EACRip\EASTER\Bach - The Great Choral Masterpieces (Peter Schreier) [Philips, 12CD]\CD 10 - Missae breves\Bach - Missae breves BWV 233, 235, 236 - Peter Schreier.wav

Peak level 98.1 %
Extraction speed 3.7 X
Range quality 99.9 %
Test CRC B159C6BC
Copy CRC B159C6BC
Copy OK

No errors occurred


AccurateRip summary

Track 1 accurately ripped (confidence 9) [2CB96C6D] (AR v2)
Track 2 accurately ripped (confidence 9) [8077C4A1] (AR v2)
Track 3 accurately ripped (confidence 9) [E9F4A36C] (AR v2)
Track 4 accurately ripped (confidence 9) [408F38CF] (AR v2)
Track 5 accurately ripped (confidence 9) [78EB78D7] (AR v2)
Track 6 accurately ripped (confidence 9) [E6BF3705] (AR v2)
Track 7 accurately ripped (confidence 9) [B4677C59] (AR v2)
Track 8 accurately ripped (confidence 9) [AFEF5BE6] (AR v2)
Track 9 accurately ripped (confidence 9) [ED51AC55] (AR v2)
Track 10 accurately ripped (confidence 9) [F478DDD7] (AR v2)
Track 11 accurately ripped (confidence 9) [C11BE1ED] (AR v2)
Track 12 accurately ripped (confidence 9) [97542529] (AR v2)
Track 13 accurately ripped (confidence 9) [13BF9401] (AR v2)
Track 14 accurately ripped (confidence 8) [29998CCA] (AR v2)
Track 15 accurately ripped (confidence 9) [8F4CD3F7] (AR v2)
Track 16 accurately ripped (confidence 9) [580CA0FC] (AR v2)
Track 17 accurately ripped (confidence 9) [BCC9AEF6] (AR v2)
Track 18 accurately ripped (confidence 9) [BFBAE707] (AR v2)

All tracks accurately ripped

End of status report

–– CUETools DB Plugin V2.1.6

[CTDB TOCID: mje9rK7PVDDJ75Cf886felu6jdk-] found
Submit result: mje9rK7PVDDJ75Cf886felu6jdk- has been confirmed
Track | CTDB Status
1 | (23/26) Accurately ripped
2 | (23/26) Accurately ripped
3 | (23/26) Accurately ripped
4 | (22/26) Accurately ripped
5 | (22/26) Accurately ripped
6 | (22/26) Accurately ripped
7 | (22/26) Accurately ripped
8 | (19/26) Accurately ripped, or (3/26) differs in 180 samples @00:11:48
9 | (22/26) Accurately ripped
10 | (22/26) Accurately ripped
11 | (21/26) Accurately ripped
12 | (21/26) Accurately ripped
13 | (22/26) Accurately ripped
14 | (23/26) Accurately ripped
15 | (22/26) Accurately ripped
16 | (22/26) Accurately ripped
17 | (22/26) Accurately ripped
18 | (23/26) Accurately ripped


==== Log checksum 96ADEE1B2CEB484B271536E9BD9A788DDFDD63A6C82E1488E36AD03874C1D0CD ====


Exact Audio Copy V1.3 from 2. September 2016

EAC extraction logfile from 21. February 2020, 13:14

Arleen Auger, Ann Murray, Marjana Lipovšek, Peter Schreier, Anton Scharinger / Bach - Missa Symbolum Nicenum (Mass in B minor) (Disc 1)

Used drive : ATAPI iHAS124 F Adapter: 1 ID: 0

Read mode : Secure
Utilize accurate stream : Yes
Defeat audio cache : Yes
Make use of C2 pointers : No

Read offset correction : 6
Overread into Lead-In and Lead-Out : No
Fill up missing offset samples with silence : Yes
Delete leading and trailing silent blocks : No
Null samples used in CRC calculations : Yes
Used interface : Native Win32 interface for Win NT & 2000

Used output format : User Defined Encoder
Selected bitrate : 1024 kBit/s
Quality : High
Add ID3 tag : No
Command line compressor : C:\Program Files (x86)\Exact Audio Copy\FLAC\FLAC.EXE
Additional command line options : -6 -V -T "ARTIST=%artist%" -T "TITLE=%title%" -T "ALBUM=%albumtitle%" -T "DATE=%year%" -T "TRACKNUMBER=%tracknr%" -T "GENRE=%genre%" -T "COMMENT=%comment%" -T "BAND=%albuminterpret%" -T "ALBUMARTIST=%albuminterpret%" -T "COMPOSER=%composer%" %haslyrics%–tag-from-file=LYRICS="%lyricsfile%"%haslyrics% -T "DISCNUMBER=%cdnumber%" -T "TOTALDISCS=%totalcds%" -T "TOTALTRACKS=%numtracks%" %hascover%–picture="%coverfile%"%hascover% %source% -o %dest%


TOC of the extracted CD

Track | Start | Length | Start sector | End sector
––––––––––––––––––––––––––––-
1 | 0:00.33 | 9:04.37 | 33 | 40869
2 | 9:04.70 | 5:16.38 | 40870 | 64607
3 | 14:21.33 | 3:14.00 | 64608 | 79157
4 | 17:35.33 | 1:37.00 | 79158 | 86432
5 | 19:12.33 | 4:30.00 | 86433 | 106682
6 | 23:42.33 | 4:47.37 | 106683 | 128244
7 | 28:29.70 | 2:40.63 | 128245 | 140307
8 | 31:10.58 | 5:54.47 | 140308 | 166904
9 | 37:05.30 | 3:19.53 | 166905 | 181882
10 | 40:25.08 | 4:58.00 | 181883 | 204232
11 | 45:23.08 | 4:06.00 | 204233 | 222682
12 | 49:29.08 | 3:58.25 | 222683 | 240557


Range status and errors

Selected range

Filename C:\EACRip\EASTER\Bach - The Great Choral Masterpieces (Peter Schreier) [Philips, 12CD]\CD 11 - Messe h-moll I\Bach - Missa Symbolum Nicenum (Mass in B minor) (Disc 1) - Peter Schreier.wav

Peak level 100.0 %
Extraction speed 3.0 X
Range quality 99.9 %
Test CRC 62FCC9F8
Copy CRC 62FCC9F8
Copy OK

No errors occurred


AccurateRip summary

Track 1 accurately ripped (confidence 3) [DC698CC3] (AR v2)
Track 2 accurately ripped (confidence 3) [05E326FC] (AR v2)
Track 3 accurately ripped (confidence 3) [B38F5286] (AR v2)
Track 4 accurately ripped (confidence 3) [AB754F42] (AR v2)
Track 5 accurately ripped (confidence 3) [BB2792D1] (AR v2)
Track 6 accurately ripped (confidence 3) [75E7C981] (AR v2)
Track 7 accurately ripped (confidence 3) [A76CFDB7] (AR v2)
Track 8 accurately ripped (confidence 3) [0E7D6DCC] (AR v2)
Track 9 accurately ripped (confidence 3) [E6BB1873] (AR v2)
Track 10 accurately ripped (confidence 3) [CF0843CA] (AR v2)
Track 11 accurately ripped (confidence 3) [1394E0E5] (AR v2)
Track 12 accurately ripped (confidence 3) [EED89EC8] (AR v2)

All tracks accurately ripped

End of status report

–– CUETools DB Plugin V2.1.6

[CTDB TOCID: loan19oA73MgJusoAhWmBDwgOTA-] found
Submit result: loan19oA73MgJusoAhWmBDwgOTA- has been confirmed
Track | CTDB Status
1 | (35/35) Accurately ripped
2 | (35/35) Accurately ripped
3 | (34/35) Accurately ripped
4 | (34/35) Accurately ripped
5 | (34/35) Accurately ripped
6 | (35/35) Accurately ripped
7 | (35/35) Accurately ripped
8 | (34/35) Accurately ripped
9 | (35/35) Accurately ripped
10 | (35/35) Accurately ripped
11 | (35/35) Accurately ripped
12 | (10/35) Accurately ripped, or (24/35) differs in 9681 samples @03:56:24-03:56:42
If you are sure that your rip contains errors, you can use CUETools to repair it.


==== Log checksum 260F4026909ACCDBDB46129A3C95458DFE5DA23B0DBADE4E28F54F96E2FF9EE9 ====


Exact Audio Copy V1.3 from 2. September 2016

EAC extraction logfile from 21. February 2020, 14:16

Arleen Auger, Ann Murray, Marjana Lipovšek, Peter Schreier, Anton Scharinger / Bach - Missa Symbolum Nicenum (Mass in B minor) (Disc 2)

Used drive : ATAPI iHAS124 F Adapter: 1 ID: 0

Read mode : Secure
Utilize accurate stream : Yes
Defeat audio cache : Yes
Make use of C2 pointers : No

Read offset correction : 6
Overread into Lead-In and Lead-Out : No
Fill up missing offset samples with silence : Yes
Delete leading and trailing silent blocks : No
Null samples used in CRC calculations : Yes
Used interface : Native Win32 interface for Win NT & 2000

Used output format : User Defined Encoder
Selected bitrate : 1024 kBit/s
Quality : High
Add ID3 tag : No
Command line compressor : C:\Program Files (x86)\Exact Audio Copy\FLAC\FLAC.EXE
Additional command line options : -6 -V -T "ARTIST=%artist%" -T "TITLE=%title%" -T "ALBUM=%albumtitle%" -T "DATE=%year%" -T "TRACKNUMBER=%tracknr%" -T "GENRE=%genre%" -T "COMMENT=%comment%" -T "BAND=%albuminterpret%" -T "ALBUMARTIST=%albuminterpret%" -T "COMPOSER=%composer%" %haslyrics%–tag-from-file=LYRICS="%lyricsfile%"%haslyrics% -T "DISCNUMBER=%cdnumber%" -T "TOTALDISCS=%totalcds%" -T "TOTALTRACKS=%numtracks%" %hascover%–picture="%coverfile%"%hascover% %source% -o %dest%


TOC of the extracted CD

Track | Start | Length | Start sector | End sector
––––––––––––––––––––––––––––-
1 | 0:00.33 | 1:46.55 | 33 | 8037
2 | 1:47.13 | 1:50.20 | 8038 | 16307
3 | 3:37.33 | 4:38.00 | 16308 | 37157
4 | 8:15.33 | 2:58.50 | 37158 | 50557
5 | 11:14.08 | 2:52.00 | 50558 | 63457
6 | 14:06.08 | 4:09.25 | 63458 | 82157
7 | 18:15.33 | 5:19.37 | 82158 | 106119
8 | 23:34.70 | 2:36.33 | 106120 | 117852
9 | 26:11.28 | 3:57.05 | 117853 | 135632
10 | 30:08.33 | 4:44.50 | 135633 | 156982
11 | 34:53.08 | 2:45.25 | 156983 | 169382
12 | 37:38.33 | 4:05.50 | 169383 | 187807
13 | 41:44.08 | 2:45.25 | 187808 | 200207
14 | 44:29.33 | 5:10.00 | 200208 | 223457
15 | 49:39.33 | 2:53.00 | 223458 | 236432


Range status and errors

Selected range

Filename C:\EACRip\EASTER\Bach - The Great Choral Masterpieces (Peter Schreier) [Philips, 12CD]\CD 12 - Messe h-moll II\Bach - Missa Symbolum Nicenum (Mass in B minor) (Disc 2) - Peter Schreier.wav

Peak level 100.0 %
Extraction speed 3.1 X
Range quality 100.0 %
Test CRC 42A516A7
Copy CRC 42A516A7
Copy OK

No errors occurred


AccurateRip summary

Track 1 accurately ripped (confidence 3) [F9A2A3F5] (AR v2)
Track 2 accurately ripped (confidence 3) [406CCA39] (AR v2)
Track 3 accurately ripped (confidence 3) [511BA74C] (AR v2)
Track 4 accurately ripped (confidence 3) [AB1CC095] (AR v2)
Track 5 accurately ripped (confidence 3) [7A450DDC] (AR v2)
Track 6 accurately ripped (confidence 3) [D6333E35] (AR v2)
Track 7 accurately ripped (confidence 3) [14A8308B] (AR v2)
Track 8 accurately ripped (confidence 3) [345ED2BC] (AR v2)
Track 9 accurately ripped (confidence 3) [9206081E] (AR v2)
Track 10 accurately ripped (confidence 3) [2EB548EA] (AR v2)
Track 11 accurately ripped (confidence 3) [DB164F74] (AR v2)
Track 12 accurately ripped (confidence 3) [2CCE82F3] (AR v2)
Track 13 accurately ripped (confidence 3) [3656BCAD] (AR v2)
Track 14 accurately ripped (confidence 3) [BAA4FC6D] (AR v2)
Track 15 accurately ripped (confidence 3) [D38C41FA] (AR v2)

All tracks accurately ripped

End of status report

–– CUETools DB Plugin V2.1.6

[CTDB TOCID: MUhapS7ri2Sja38SGO78rNCNNHQ-] found
Submit result: MUhapS7ri2Sja38SGO78rNCNNHQ- has been confirmed
Track | CTDB Status
1 | (34/34) Accurately ripped
2 | (34/34) Accurately ripped
3 | (33/34) Accurately ripped
4 | (33/34) Accurately ripped
5 | (33/34) Accurately ripped
6 | (34/34) Accurately ripped
7 | (34/34) Accurately ripped
8 | (34/34) Accurately ripped
9 | (34/34) Accurately ripped
10 | (34/34) Accurately ripped
11 | (34/34) Accurately ripped
12 | (34/34) Accurately ripped
13 | (34/34) Accurately ripped
14 | (33/34) Accurately ripped
15 | (34/34) Accurately ripped


==== Log checksum A4FDF0FBFDF54FDFE6DE18519D9533061DAB3ABAC1B5ABC574AF6F73DB50EBFE ====


Peter Schreier, Staatskapelle Dresden - Johann Sebastian Bach: The Great Choral Masterpieces [12CDs] (1996)

Thanks to the original releaser