Tags
Language
Tags

Philippe Herreweghe, Harmonie de l'Orchestre des Champs-Élysées - Mozart: Serenades K.361 "Gran Partita" & K.388 (2005)

Posted By: ArlegZ
Philippe Herreweghe, Harmonie de l'Orchestre des Champs-Élysées - Mozart: Serenades K.361 "Gran Partita" & K.388 (2005)

Philippe Herreweghe, Harmonie de l'Orchestre des Champs-Élysées - Mozart: Serenades K.361 "Gran Partita" & K.388 (2005)
EAC | FLAC | Image (Cue & Log) ~ 305 Mb | Total time: 77:29 | Scans included
Classical | Label: Harmonia Mundi | # HMX 2961570 | Recorded: 1997

The grandest of Mozart's wind serenades in performances that fully measure up to their wit and profundity. Philippe Herreweghe's attributes as a conductor, perviously revealed in an outstanding series of baroque and classsical choral works, are revealed in these warm and wise period performances, with outstanding playing.
– The Guardian

Performer:
Harmonie de l'Orchestre des Champs-Élysées
Philippe Herreweghe, conductor

Track List:
Sérénade n°10 "Gran Partita", K.361
01. I. Largo. Molto allegro
02. II. Menuetto. Trios I & II
03. III. Adagio
04. IV. Menuetto. Allegretto. Trios I & II
05. V. Romanze. Allegretto
06. VI. Tema con variazioni. Andante
07. VII. Finale. Molto allegro
Sérénade n°12 "Nacht Musique", K. 388
08. I. Allegro
09. II. Andante
10. III. Menuetto in canone. Trio in canon al rovescio
11. IV. Allegro


Exact Audio Copy V1.6 from 23. October 2020

EAC extraction logfile from 13. November 2021, 23:14

Philippe Herreweghe, Harmonie de l'Orchestre des Champs-Elysées / Mozart - Serenades K.361, K.388

Used drive : PIONEER DVD-RW DVR-218L Adapter: 1 ID: 0

Read mode : Secure
Utilize accurate stream : Yes
Defeat audio cache : Yes
Make use of C2 pointers : No

Read offset correction : 6
Overread into Lead-In and Lead-Out : No
Fill up missing offset samples with silence : Yes
Delete leading and trailing silent blocks : No
Null samples used in CRC calculations : Yes
Used interface : Native Win32 interface for Win NT & 2000

Used output format : User Defined Encoder
Selected bitrate : 128 kBit/s
Quality : High
Add ID3 tag : No
Command line compressor : C:\Program Files\Exact Audio Copy\Flac\flac.exe
Additional command line options : -V -8 -T "Date=%year%" -T "Genre=%genre%" %source%


TOC of the extracted CD

Track | Start | Length | Start sector | End sector
––––––––––––––––––––––––––––-
1 | 0:00.00 | 9:11.07 | 0 | 41331
2 | 9:11.07 | 8:25.30 | 41332 | 79236
3 | 17:36.37 | 5:15.53 | 79237 | 102914
4 | 22:52.15 | 4:53.07 | 102915 | 124896
5 | 27:45.22 | 7:25.13 | 124897 | 158284
6 | 35:10.35 | 9:45.17 | 158285 | 202176
7 | 44:55.52 | 3:36.73 | 202177 | 218449
8 | 48:32.50 | 7:04.35 | 218450 | 250284
9 | 55:37.10 | 4:33.12 | 250285 | 270771
10 | 60:10.22 | 4:03.13 | 270772 | 289009
11 | 64:13.35 | 6:16.20 | 289010 | 317229


Range status and errors

Selected range

Filename C:\ArlegZ\Mozart - Serenades K.361, K.388 - Philippe Herreweghe.wav

Peak level 71.3 %
Extraction speed 2.0 X
Range quality 100.0 %
Test CRC 222E1B87
Copy CRC 222E1B87
Copy OK

No errors occurred


AccurateRip summary

Track 1 accurately ripped (confidence 15) [64A88626] (AR v2)
Track 2 accurately ripped (confidence 15) [AD51AD39] (AR v2)
Track 3 accurately ripped (confidence 15) [A17E16B0] (AR v2)
Track 4 accurately ripped (confidence 15) [6FABEB3B] (AR v2)
Track 5 accurately ripped (confidence 15) [BFE5681B] (AR v2)
Track 6 accurately ripped (confidence 15) [FBA67546] (AR v2)
Track 7 accurately ripped (confidence 15) [83141D02] (AR v2)
Track 8 accurately ripped (confidence 15) [01D59E49] (AR v2)
Track 9 accurately ripped (confidence 15) [299C1222] (AR v2)
Track 10 accurately ripped (confidence 15) [5B265076] (AR v2)
Track 11 accurately ripped (confidence 15) [8A3B22EA] (AR v2)

All tracks accurately ripped

End of status report

–– CUETools DB Plugin V2.1.6

[CTDB TOCID: mMYryXH_bIDSx9lDGxVzKuWQcQo-] found
Submit result: mMYryXH_bIDSx9lDGxVzKuWQcQo- has been confirmed
Track | CTDB Status
1 | (102/103) Accurately ripped
2 | (101/103) Accurately ripped
3 | (101/103) Accurately ripped
4 | (101/103) Accurately ripped
5 | (101/103) Accurately ripped
6 | (101/103) Accurately ripped
7 | (100/103) Accurately ripped
8 | (100/103) Accurately ripped
9 | (100/103) Accurately ripped
10 | (101/103) Accurately ripped
11 | ( 99/103) Accurately ripped


==== Log checksum A9228AEBBB8170693622FD832EBAFCB990BF3A3083516399D4A5083C1D42EE6D ====

Philippe Herreweghe, Harmonie de l'Orchestre des Champs-Élysées - Mozart: Serenades K.361 "Gran Partita" & K.388 (2005)