Subcategories

Pink Floyd - Smoking Blues (1997)

Posted By: v3122
Pink Floyd - Smoking Blues (1997)

Pink Floyd - Smoking Blues (1997)
EAC | Flac(Image) + Cue + Log & MP3 CBR 320Kbps
2CD | The Digital Floyd Project, DFP-152 | ~ 520 or 196 Mb | Artwork -> 4.31 Mb
Progressive Rock | Remastered | Unofficial Release

~ Montreux Casino, Montreux, Switzerland, November 21st, 1970. ~

Pink Floyd - Smoking Blues (1997):

Tracklist CD1:

01 - Astronomy Domine - 10:35
02 - Fat Old Sun - 14:06
03 - Atom Heart Mother - 18:36

Exact Audio Copy V0.99 prebeta 5 from 4. May 2009

EAC extraction logfile from 26. April 2010, 21:43

Pink Floyd / Smoking Blues (1997)

Used drive : HL-DT-STDVDRAM GH20NS15 Adapter: 2 ID: 0

Read mode : Secure
Utilize accurate stream : Yes
Defeat audio cache : Yes
Make use of C2 pointers : No

Read offset correction : 667
Overread into Lead-In and Lead-Out : No
Fill up missing offset samples with silence : Yes
Delete leading and trailing silent blocks : No
Null samples used in CRC calculations : Yes
Used interface : Installed external ASPI interface

Used output format : User Defined Encoder
Selected bitrate : 1024 kBit/s
Quality : High
Add ID3 tag : No
Command line compressor : C:\Program Files (x86)\Exact Audio Copy\FLAC\FLAC.EXE
Additional command line options : -8 -A tukey(0.25) -A gauss(0.1875) -b 4096 -V -T "artist=%a" -T "title=%t" -T "album=%g" -T "date=%y" -T "tracknumber=%n" -T "genre=%m" %s –sector-align


TOC of the extracted CD

Track | Start | Length | Start sector | End sector
––––––––––––––––––––––––––––-
1 | 0:00.00 | 10:36.72 | 0 | 47771
2 | 10:36.72 | 14:08.40 | 47772 | 111411
3 | 24:45.37 | 18:35.58 | 111412 | 195094


Range status and errors

Selected range

Filename D:\Pink Floyd\Pink Floyd - Smoking Blues (1997)\Disc 1\Pink Floyd - Smoking Blues (Disc 1).wav

Peak level 100.0 %
Range quality 100.0 %
Copy CRC 18D41EB5
Copy OK

No errors occurred

End of status report


[CUETools log; Date: 30.06.2020 9:40:04; Version: 2.1.4]
[AccurateRip ID: 000567e7-00127731-270a2903] found.
Track [ CRC | V2 ] Status
01 [db73cc19|c0f53b95] (1+0/1) Accurately ripped
02 [e627a9ed|d7155fa2] (1+0/1) Accurately ripped
03 [258f13bf|db92f0a5] (1+0/1) Accurately ripped

Track Peak [ CRC32 ] [W/O NULL] [ LOG ]
– 100,0 [18D41EB5] [C5D8779B] CRC32
01 98,2 [A9C9A92B] [9482E6CB]
02 100,0 [DE6026CC] [580F514D]
03 100,0 [70D9F767] [8F2A6B75]


Tracklist CD2:

01 - Cymbaline - 11:41
02 - The Embryo - 13:09
03 - Just Another 12 Bar - 05:29
04 - More Blues (cut at the end) - 09:17

Exact Audio Copy V0.99 prebeta 5 from 4. May 2009

EAC extraction logfile from 26. April 2010, 22:04

Pink Floyd / Smoking Blues (Disc 2)

Used drive : HL-DT-STDVDRAM GH20NS15 Adapter: 2 ID: 0

Read mode : Secure
Utilize accurate stream : Yes
Defeat audio cache : Yes
Make use of C2 pointers : No

Read offset correction : 667
Overread into Lead-In and Lead-Out : No
Fill up missing offset samples with silence : Yes
Delete leading and trailing silent blocks : No
Null samples used in CRC calculations : Yes
Used interface : Installed external ASPI interface

Used output format : User Defined Encoder
Selected bitrate : 1024 kBit/s
Quality : High
Add ID3 tag : No
Command line compressor : C:\Program Files (x86)\Exact Audio Copy\FLAC\FLAC.EXE
Additional command line options : -8 -A tukey(0.25) -A gauss(0.1875) -b 4096 -V -T "artist=%a" -T "title=%t" -T "album=%g" -T "date=%y" -T "tracknumber=%n" -T "genre=%m" %s –sector-align


TOC of the extracted CD

Track | Start | Length | Start sector | End sector
––––––––––––––––––––––––––––-
1 | 0:00.00 | 11:43.67 | 0 | 52791
2 | 11:43.67 | 13:11.45 | 52792 | 112161
3 | 24:55.37 | 5:31.31 | 112162 | 137017
4 | 30:26.68 | 9:17.44 | 137018 | 178836


Range status and errors

Selected range

Filename D:\Pink Floyd\Pink Floyd - Smoking Blues (1997)\Disc 2\Pink Floyd - Smoking Blues (Disc 2).wav

Peak level 100.0 %
Range quality 100.0 %
Copy CRC AF7DDE6F
Copy OK

No errors occurred

End of status report


[CUETools log; Date: 30.06.2020 9:49:04; Version: 2.1.4]
[AccurateRip ID: 00075629-001cc0a8-36095004] found.
Track [ CRC | V2 ] Status
01 [0052763b|872de6e1] (1+0/1) Accurately ripped
02 [a7c33e43|be0e65d9] (1+0/1) Accurately ripped
03 [bfad430c|2df9641b] (1+0/1) Accurately ripped
04 [973e4ae3|a6027e1f] (1+0/1) Accurately ripped

Track Peak [ CRC32 ] [W/O NULL] [ LOG ]
– 100,0 [AF7DDE6F] [8FBC2CC2] CRC32
01 100,0 [69600737] [BB1E8F5B]
02 98,0 [BABF8B3E] [CC788E30]
03 89,5 [1DED39AD] [1B589D5F]
04 100,0 [DBF204E4] [C402B7B5]


Pink Floyd - Smoking Blues (1997)

All thanks go to the original releaser

Pink Floyd in my Blog

Download Pink Floyd - Smoking Blues (1997):