Subcategories
Tags
Language
Tags

Brian Wilson - Playback: The Brian Wilson Anthology (2017)

Posted By: SERTiL
Brian Wilson - Playback: The Brian Wilson Anthology (2017)

Brian Wilson - Playback: The Brian Wilson Anthology
XLD Rip | FLAC (tracks)+cue, log, front cover | 73:01 min | 484 MB
Label: Rhino Records – R2 560079 / US | Tracks: 18 | Rls.date: 2017
Pop, Classic Rock, Singer-Songwriter

An anthology of solo recordings from the original Beach Boy, Brian Wilson, starting with his ‘comeback’ album on Sire, through to the current day & a new track ‘Run James Run’ which is unreleased & recorded specifically for this album. The record also features another unreleased track – ‘Some Sweet Day’ – from the sessions with Andy Paley. And the remainder comes from his various solo releases, the self-titled album on Sire, the ‘Smile’ release on Nonesuch, the duet ‘Soul Searchin’’ with his brother Carl from ‘Gettin’ In Over My Head’ right through to the most recent full length ‘No Pier Pressure’ on Capitol.

Tracklist:
01. Love and Mercy (Remastered) [02:56]
02. Surf's Up (Remastered) [04:06]
03. Heroes and Villains (Remastered) [04:53]
04. Melt Away (Remastered) [02:59]
05. Let It Shine (Remastered) [03:58]
06. Some Sweet Day [02:39]
07. Rio Grande (Remastered) [08:12]
08. Cry (Remastered) [04:59]
09. Lay Down Burden (Remastered) [03:44]
10. The First Time (Live at the Roxy Theater, Los Angeles, CA, 4/7-8/2000) (Remastered) [03:32]
11. This Isn't Love (Live at the Roxy Theater, Los Angeles, CA, 4/7-8/2000) (Remastered) [03:55]
12. Soul Searchin' (Remastered) [04:08]
13. Gettin' In Over My Head (Remastered) [04:27]
14. The Like in I Love You [03:19]
15. Midnight's Another Day [03:57]
16. Colors of the Wind [03:59]
17. One Kind of Love [03:34]
18. Run James Run [03:27]

[X Lossless Decoder version 20170729 (150.3)

XLD extraction logfile from 2017-10-25 18:02:26 -0400

Brian Wilson / Playback - the Brian Wilson Anthology

Used drive : PIONEER BD-RW BDR-XD05 (revision 3.01)
Media type : Pressed CD

Ripper mode : XLD Secure Ripper
Disable audio cache : OK for the drive with a cache less than 1375KiB
Make use of C2 pointers : NO
Read offset correction : 667
Max retry count : 20
Gap status : Analyzed, Appended (except HTOA)

TOC of the extracted CD
Track | Start | Length | Start sector | End sector
––––––––––––––––––––––––––––-
1 | 00:00:00 | 02:56:22 | 0 | 13221
2 | 02:56:22 | 04:06:55 | 13222 | 31726
3 | 07:03:02 | 04:53:72 | 31727 | 53773
4 | 11:56:74 | 02:59:41 | 53774 | 67239
5 | 14:56:40 | 03:58:23 | 67240 | 85112
6 | 18:54:63 | 02:39:71 | 85113 | 97108
7 | 21:34:59 | 08:12:14 | 97109 | 134022
8 | 29:46:73 | 04:59:73 | 134023 | 156520
9 | 34:46:71 | 03:44:65 | 156521 | 173385
10 | 38:31:61 | 03:32:30 | 173386 | 189315
11 | 42:04:16 | 03:55:69 | 189316 | 207009
12 | 46:00:10 | 04:08:53 | 207010 | 225662
13 | 50:08:63 | 04:27:06 | 225663 | 245693
14 | 54:35:69 | 03:21:43 | 245694 | 260811
15 | 57:57:37 | 04:12:08 | 260812 | 279719
16 | 62:09:45 | 04:00:67 | 279720 | 297786
17 | 66:10:37 | 03:33:47 | 297787 | 313808
18 | 69:44:09 | 03:27:54 | 313809 | 329387

AccurateRip Summary (DiscID: 00303ce2-02869780-1b112712)
Track 01 : OK (v2, confidence 1/1)
Track 02 : OK (v2, confidence 1/1)
Track 03 : OK (v2, confidence 1/1)
Track 04 : OK (v2, confidence 1/1)
Track 05 : OK (v2, confidence 1/1)
Track 06 : OK (v2, confidence 1/1)
Track 07 : OK (v2, confidence 1/1)
Track 08 : OK (v2, confidence 1/1)
Track 09 : OK (v2, confidence 1/1)
Track 10 : OK (v2, confidence 1/1)
Track 11 : OK (v2, confidence 1/1)
Track 12 : OK (v2, confidence 1/1)
Track 13 : OK (v2, confidence 1/1)
Track 14 : OK (v2, confidence 1/1)
Track 15 : OK (v2, confidence 1/1)
Track 16 : OK (v2, confidence 1/1)
Track 17 : OK (v2, confidence 1/1)
Track 18 : OK (v2, confidence 1/1)
->All tracks accurately ripped.

All Tracks
Album gain : -7.88 dB
Peak : 1.000000
Statistics
Read error : 0
Jitter error (maybe fixed) : 0
Retry sector count : 0
Damaged sector count : 0

Track 01
Filename : /Volumes/Media/_Music-Rips/runthatshit/Brian Wilson - Playback - the Brian Wilson Anthology (2017) [CD-FLAC]/01 Love and Mercy.flac
Pre-gap length : 00:02:00

Track gain : -9.05 dB
Peak : 0.988617
CRC32 hash (test run) : 60EA39BF
CRC32 hash : 60EA39BF
CRC32 hash (skip zero) : B73A6C88
AccurateRip v1 signature : AB07DE5F
AccurateRip v2 signature : 611E72E6
->Accurately ripped (v2, confidence 1/1)
Statistics
Read error : 0
Jitter error (maybe fixed) : 0
Retry sector count : 0
Damaged sector count : 0

Track 02
Filename : /Volumes/Media/_Music-Rips/runthatshit/Brian Wilson - Playback - the Brian Wilson Anthology (2017) [CD-FLAC]/02 Surf's Up.flac

Track gain : -7.07 dB
Peak : 0.988617
CRC32 hash (test run) : 1B4E76F6
CRC32 hash : 1B4E76F6
CRC32 hash (skip zero) : 8EDC8A24
AccurateRip v1 signature : FF904EB5
AccurateRip v2 signature : 74B85193
->Accurately ripped (v2, confidence 1/1)
Statistics
Read error : 0
Jitter error (maybe fixed) : 0
Retry sector count : 0
Damaged sector count : 0

Track 03
Filename : /Volumes/Media/_Music-Rips/runthatshit/Brian Wilson - Playback - the Brian Wilson Anthology (2017) [CD-FLAC]/03 Heroes and Villains.flac

Track gain : -7.64 dB
Peak : 1.000000
CRC32 hash (test run) : 4BA2692A
CRC32 hash : 4BA2692A
CRC32 hash (skip zero) : 2D009DF2
AccurateRip v1 signature : A130DC94
AccurateRip v2 signature : 2ABECD8F
->Accurately ripped (v2, confidence 1/1)
Statistics
Read error : 0
Jitter error (maybe fixed) : 0
Retry sector count : 0
Damaged sector count : 0

Track 04
Filename : /Volumes/Media/_Music-Rips/runthatshit/Brian Wilson - Playback - the Brian Wilson Anthology (2017) [CD-FLAC]/04 Melt Away.flac

Track gain : -7.11 dB
Peak : 0.988617
CRC32 hash (test run) : F3AF3A53
CRC32 hash : F3AF3A53
CRC32 hash (skip zero) : 0A74E59F
AccurateRip v1 signature : D4CE88A8
AccurateRip v2 signature : 50A36C13
->Accurately ripped (v2, confidence 1/1)
Statistics
Read error : 0
Jitter error (maybe fixed) : 0
Retry sector count : 0
Damaged sector count : 0

Track 05
Filename : /Volumes/Media/_Music-Rips/runthatshit/Brian Wilson - Playback - the Brian Wilson Anthology (2017) [CD-FLAC]/05 Let It Shine.flac

Track gain : -8.49 dB
Peak : 0.988617
CRC32 hash (test run) : 57D437C0
CRC32 hash : 57D437C0
CRC32 hash (skip zero) : BD9DAF61
AccurateRip v1 signature : FF030B7D
AccurateRip v2 signature : 11F3D0D0
->Accurately ripped (v2, confidence 1/1)
Statistics
Read error : 0
Jitter error (maybe fixed) : 0
Retry sector count : 0
Damaged sector count : 0

Track 06
Filename : /Volumes/Media/_Music-Rips/runthatshit/Brian Wilson - Playback - the Brian Wilson Anthology (2017) [CD-FLAC]/06 Some Sweet Day.flac

Track gain : -8.49 dB
Peak : 1.000000
CRC32 hash (test run) : 7D6F9717
CRC32 hash : 7D6F9717
CRC32 hash (skip zero) : F9E6A44C
AccurateRip v1 signature : D11B2A1C
AccurateRip v2 signature : 36EE6A98
->Accurately ripped (v2, confidence 1/1)
Statistics
Read error : 0
Jitter error (maybe fixed) : 0
Retry sector count : 0
Damaged sector count : 0

Track 07
Filename : /Volumes/Media/_Music-Rips/runthatshit/Brian Wilson - Playback - the Brian Wilson Anthology (2017) [CD-FLAC]/07 Rio Grande.flac

Track gain : -7.52 dB
Peak : 0.968048
CRC32 hash (test run) : 847462D6
CRC32 hash : 847462D6
CRC32 hash (skip zero) : DEA53C54
AccurateRip v1 signature : C988C4E6
AccurateRip v2 signature : 27FA4FF8
->Accurately ripped (v2, confidence 1/1)
Statistics
Read error : 0
Jitter error (maybe fixed) : 0
Retry sector count : 0
Damaged sector count : 0

Track 08
Filename : /Volumes/Media/_Music-Rips/runthatshit/Brian Wilson - Playback - the Brian Wilson Anthology (2017) [CD-FLAC]/08 Cry.flac

Track gain : -5.84 dB
Peak : 0.988617
CRC32 hash (test run) : C3F441F4
CRC32 hash : C3F441F4
CRC32 hash (skip zero) : B2A7EAAC
AccurateRip v1 signature : 5D1C0F3F
AccurateRip v2 signature : 07F797CB
->Accurately ripped (v2, confidence 1/1)
Statistics
Read error : 0
Jitter error (maybe fixed) : 0
Retry sector count : 0
Damaged sector count : 0

Track 09
Filename : /Volumes/Media/_Music-Rips/runthatshit/Brian Wilson - Playback - the Brian Wilson Anthology (2017) [CD-FLAC]/09 Lay Down Burden.flac

Track gain : -6.70 dB
Peak : 0.988617
CRC32 hash (test run) : E1CF086D
CRC32 hash : E1CF086D
CRC32 hash (skip zero) : 6CBF9F19
AccurateRip v1 signature : 581C3C2D
AccurateRip v2 signature : 0AE97BE0
->Accurately ripped (v2, confidence 1/1)
Statistics
Read error : 0
Jitter error (maybe fixed) : 0
Retry sector count : 0
Damaged sector count : 0

Track 10
Filename : /Volumes/Media/_Music-Rips/runthatshit/Brian Wilson - Playback - the Brian Wilson Anthology (2017) [CD-FLAC]/10 The First Time.flac

Track gain : -8.89 dB
Peak : 0.988647
CRC32 hash (test run) : E57F517E
CRC32 hash : E57F517E
CRC32 hash (skip zero) : 044E2F47
AccurateRip v1 signature : E75C1A2E
AccurateRip v2 signature : 3D93E922
->Accurately ripped (v2, confidence 1/1)
Statistics
Read error : 0
Jitter error (maybe fixed) : 0
Retry sector count : 0
Damaged sector count : 0

Track 11
Filename : /Volumes/Media/_Music-Rips/runthatshit/Brian Wilson - Playback - the Brian Wilson Anthology (2017) [CD-FLAC]/11 This Isn't Love.flac

Track gain : -6.20 dB
Peak : 0.881195
CRC32 hash (test run) : 65A3AABC
CRC32 hash : 65A3AABC
CRC32 hash (skip zero) : 826FB0F2
AccurateRip v1 signature : 51EE4D19
AccurateRip v2 signature : 9C17D58F
->Accurately ripped (v2, confidence 1/1)
Statistics
Read error : 0
Jitter error (maybe fixed) : 0
Retry sector count : 0
Damaged sector count : 0

Track 12
Filename : /Volumes/Media/_Music-Rips/runthatshit/Brian Wilson - Playback - the Brian Wilson Anthology (2017) [CD-FLAC]/12 Soul Searchin'.flac

Track gain : -8.95 dB
Peak : 0.988617
CRC32 hash (test run) : AC177CFD
CRC32 hash : AC177CFD
CRC32 hash (skip zero) : D20C5126
AccurateRip v1 signature : CB4FE929
AccurateRip v2 signature : 46AED5CB
->Accurately ripped (v2, confidence 1/1)
Statistics
Read error : 0
Jitter error (maybe fixed) : 0
Retry sector count : 0
Damaged sector count : 0

Track 13
Filename : /Volumes/Media/_Music-Rips/runthatshit/Brian Wilson - Playback - the Brian Wilson Anthology (2017) [CD-FLAC]/13 Gettin' In Over My Head.flac

Track gain : -7.29 dB
Peak : 0.988617
CRC32 hash (test run) : CA3AB916
CRC32 hash : CA3AB916
CRC32 hash (skip zero) : AE844F47
AccurateRip v1 signature : CEA18AB2
AccurateRip v2 signature : 552C436B
->Accurately ripped (v2, confidence 1/1)
Statistics
Read error : 0
Jitter error (maybe fixed) : 0
Retry sector count : 0
Damaged sector count : 0

Track 14
Filename : /Volumes/Media/_Music-Rips/runthatshit/Brian Wilson - Playback - the Brian Wilson Anthology (2017) [CD-FLAC]/14 The Like I Love in You.flac

Track gain : -6.52 dB
Peak : 0.999969
CRC32 hash (test run) : A1C1009D
CRC32 hash : A1C1009D
CRC32 hash (skip zero) : B81F9D9F
AccurateRip v1 signature : AEAADFD7
AccurateRip v2 signature : 3D22BE52
->Accurately ripped (v2, confidence 1/1)
Statistics
Read error : 0
Jitter error (maybe fixed) : 0
Retry sector count : 0
Damaged sector count : 0

Track 15
Filename : /Volumes/Media/_Music-Rips/runthatshit/Brian Wilson - Playback - the Brian Wilson Anthology (2017) [CD-FLAC]/15 Midnight's Another Day.flac

Track gain : -7.05 dB
Peak : 0.995331
CRC32 hash (test run) : 3F7C6A89
CRC32 hash : 3F7C6A89
CRC32 hash (skip zero) : DCA88B12
AccurateRip v1 signature : AB06533A
AccurateRip v2 signature : 9A604572
->Accurately ripped (v2, confidence 1/1)
Statistics
Read error : 0
Jitter error (maybe fixed) : 0
Retry sector count : 0
Damaged sector count : 0

Track 16
Filename : /Volumes/Media/_Music-Rips/runthatshit/Brian Wilson - Playback - the Brian Wilson Anthology (2017) [CD-FLAC]/16 Colors of the Wind.flac

Track gain : -8.51 dB
Peak : 0.891266
CRC32 hash (test run) : 9FE8B729
CRC32 hash : 9FE8B729
CRC32 hash (skip zero) : 0EC605DF
AccurateRip v1 signature : 368F6F16
AccurateRip v2 signature : 92B55D47
->Accurately ripped (v2, confidence 1/1)
Statistics
Read error : 0
Jitter error (maybe fixed) : 0
Retry sector count : 0
Damaged sector count : 0

Track 17
Filename : /Volumes/Media/_Music-Rips/runthatshit/Brian Wilson - Playback - the Brian Wilson Anthology (2017) [CD-FLAC]/17 One Kind of Love.flac

Track gain : -7.54 dB
Peak : 0.891266
CRC32 hash (test run) : CF71ECB2
CRC32 hash : CF71ECB2
CRC32 hash (skip zero) : B55DB4E1
AccurateRip v1 signature : 3091ED60
AccurateRip v2 signature : C8BC24C6
->Accurately ripped (v2, confidence 1/1)
Statistics
Read error : 0
Jitter error (maybe fixed) : 0
Retry sector count : 0
Damaged sector count : 0

Track 18
Filename : /Volumes/Media/_Music-Rips/runthatshit/Brian Wilson - Playback - the Brian Wilson Anthology (2017) [CD-FLAC]/18 Run James Run.flac

Track gain : -8.16 dB
Peak : 1.000000
CRC32 hash (test run) : C4F88AAE
CRC32 hash : C4F88AAE
CRC32 hash (skip zero) : 88FDF7D3
AccurateRip v1 signature : CA2E09DB
AccurateRip v2 signature : 00DC3702
->Accurately ripped (v2, confidence 1/1)
Statistics
Read error : 0
Jitter error (maybe fixed) : 0
Retry sector count : 0
Damaged sector count : 0

No errors occurred

End of status report

––-BEGIN XLD SIGNATURE––-
1_chxUmB5MnssqqEtperAo9hfu4Ts9J1Ilb7ROcDV8PA8vxGTGqBdgvnWseVsndasZfR2arm3ja._Y.rlj8jsFvX3eyFW5m.w5zEcta
––-END XLD


Thanks to the Original customer.