Subcategories

Christopher Houlihan - Plays Bach (2017)

Posted By: SERTiL
Christopher Houlihan - Plays Bach (2017)

Christopher Houlihan - Plays Bach
XLD Rip | FLAC (tracks)+cue, log, front cover | 79:52 min | 340 MB
Label: Azica Records - ACD-71314 | Tracks: 15 | Rls.date: 2017
Classical, Organ, Baroque

Christopher Houlihan commences BWV542’s Fantasia with a delightful introductory flourish, and characterises the rippling fireworks and introspective interludes with strikingly different yet compelling timbral contrasts, topping things off with a brisk and fluent fugue. The Italian Concerto’s first two movements work surprisingly well on the organ in Houlihan’s arrangement. He transforms the implied pedal points in the harpsichord score into real ones, although Bach’s indicated distinctions between solo and tutti passages don’t consistently come across. However, the finale’s crackling energy sinks under the organ’s sonorous weight. So does the climax of the Fugue in B minor, BWV544, where the massive registrations contrast with the relatively transparent woodwind-like stops prevailing throughout the Prelude.

On the other hand, Houlihan’s registral diversity enlivens and clarifies the lucid and excellently articulated contrapuntal interplay in all three movements of the G major Trio Sonata. His lithe tempos and incisive inner rhythm stand out in the C major Toccata and Fugue, BWV564, not to mention a central Adagio that emerges like an aria, as opposed to the blobby, interminable dirge that I’ve heard from certain famous Bach organists. If Houlihan’s C minor Passacaglia and Fugue misses some of the kinetic sweep and cumulative grandeur that Marie-Claire Alain and Anthony Newman have brought to it, the numerous contrasts in tone colour and dynamics not only add textural variety but also help to illuminate the music’s structure without labouring the point.

The engineering strikes a judicious balance between clear instrumental definition and preserving something of the chapel’s natural resonance. It may not be politically correct in 2017 to present Bach’s organ music on an American model instrument whose electro-pneumatic action and wide range of dynamics and registrations are far removed from the composer’s time. Yet when you reckon with a passionate and intelligently virtuoso musician such as Christopher Houlihan manning the Trinity College Chapel Organ in Hartford, Connecticut, who cares? (Gramophone)

TRACKLIST
1. Fantasia in G Minor, BWV 542 5:39
2. Fugue in G Minor, BWV 542 5:34
3. Italian Concerto, BWV 971 "Allegro" 4:35
4. Italian Concerto, BWV 971 "Andante" 4:46
5. Italian Concerto, BWV 971 "Presto" 4:31
6. Prelude in B Minor, BWV 544 6:55
7. Fugue in B Minor, BWV 544 6:36
8. Trio Sonata in G Major, BWV 530 "Vivace" 3:51
9. Trio Sonata in G Major, BWV 530 "Lento" 5:09
10. Trio Sonata in G Major, BWV 530 "Allegro" 3:42
11. Toccata in C Major, BWV 564 5:47
12. Adagio in C Major, BWV 564 5:05
13. Fugue in C Major, BWV 564 4:26
14. Passacaglia in C Minor, BWV 582 8:15
15. Fugue in C Minor, BWV 582 5:06

X Lossless Decoder version 20161007 (149.3)

XLD extraction logfile from 2017-06-06 09:58:28 -0700

Christopher Houlihan / Christopher Houlihan Plays Bach

Used drive : Apple SuperDrive (revision 2.03)
Media type : Pressed CD

Ripper mode : XLD Secure Ripper
Disable audio cache : OK for the drive with a cache less than 1375KiB
Make use of C2 pointers : NO
Read offset correction : 6
Max retry count : 100
Gap status : Analyzed, Appended (except HTOA)

TOC of the extracted CD
Track | Start | Length | Start sector | End sector
––––––––––––––––––––––––––––-
1 | 00:00:00 | 05:38:49 | 0 | 25398
2 | 05:38:49 | 05:34:15 | 25399 | 50463
3 | 11:12:64 | 04:34:47 | 50464 | 71060
4 | 15:47:36 | 04:45:52 | 71061 | 92487
5 | 20:33:13 | 04:31:22 | 92488 | 112834
6 | 25:04:35 | 06:55:14 | 112835 | 143973
7 | 31:59:49 | 06:35:64 | 143974 | 173662
8 | 38:35:38 | 03:51:14 | 173663 | 191001
9 | 42:26:52 | 05:09:12 | 191002 | 214188
10 | 47:35:64 | 03:42:17 | 214189 | 230855
11 | 51:18:06 | 05:47:36 | 230856 | 256916
12 | 57:05:42 | 05:05:05 | 256917 | 279796
13 | 62:10:47 | 04:26:00 | 279797 | 299746
14 | 66:36:47 | 08:14:53 | 299747 | 336849
15 | 74:51:25 | 05:06:12 | 336850 | 359811

AccurateRip Summary
Disc not found in AccurateRip DB.

All Tracks
Album gain : -0.34 dB
Peak : 0.943451
Statistics
Read error : 0
Jitter error (maybe fixed) : 0
Retry sector count : 0
Damaged sector count : 0

Track 01
Filename : /Volumes/500GB HD/Christopher Houlihan - Plays Bach (2017) [FLAC]/Christopher Houlihan - Christopher Houlihan Plays Bach (2017) [FLAC]/01 Fantasia in G Minor, BWV 542.flac
Pre-gap length : 00:02:00

Track gain : -3.02 dB
Peak : 0.939545
CRC32 hash (test run) : F1DD5BE6
CRC32 hash : F1DD5BE6
CRC32 hash (skip zero) : C1062071
AccurateRip v1 signature : BDC056F1
AccurateRip v2 signature : 589B9681
->Track not present in AccurateRip database.
Statistics
Read error : 0
Jitter error (maybe fixed) : 0
Retry sector count : 0
Damaged sector count : 0

Track 02
Filename : /Volumes/500GB HD/Christopher Houlihan - Plays Bach (2017) [FLAC]/Christopher Houlihan - Christopher Houlihan Plays Bach (2017) [FLAC]/02 Fugue in G Minor, BWV 542.flac

Track gain : 0.18 dB
Peak : 0.943451
CRC32 hash (test run) : 4C5E6D39
CRC32 hash : 4C5E6D39
CRC32 hash (skip zero) : 92F21C97
AccurateRip v1 signature : 8ADC4C31
AccurateRip v2 signature : 0679789E
->Track not present in AccurateRip database.
Statistics
Read error : 0
Jitter error (maybe fixed) : 0
Retry sector count : 0
Damaged sector count : 0

Track 03
Filename : /Volumes/500GB HD/Christopher Houlihan - Plays Bach (2017) [FLAC]/Christopher Houlihan - Christopher Houlihan Plays Bach (2017) [FLAC]/03 Italian Concerto, BWV 971 "Allegro".flac

Track gain : 1.36 dB
Peak : 0.575958
CRC32 hash (test run) : DFDB2F8B
CRC32 hash : DFDB2F8B
CRC32 hash (skip zero) : 2332C156
AccurateRip v1 signature : 4D81794E
AccurateRip v2 signature : 87900B77
->Track not present in AccurateRip database.
Statistics
Read error : 0
Jitter error (maybe fixed) : 0
Retry sector count : 0
Damaged sector count : 0

Track 04
Filename : /Volumes/500GB HD/Christopher Houlihan - Plays Bach (2017) [FLAC]/Christopher Houlihan - Christopher Houlihan Plays Bach (2017) [FLAC]/04 Italian Concerto, BWV 971 "Andante".flac

Track gain : 11.60 dB
Peak : 0.222565
CRC32 hash (test run) : F6E8442D
CRC32 hash : F6E8442D
CRC32 hash (skip zero) : 6A837576
AccurateRip v1 signature : 21FD22BF
AccurateRip v2 signature : 48F0E332
->Track not present in AccurateRip database.
Statistics
Read error : 0
Jitter error (maybe fixed) : 0
Retry sector count : 0
Damaged sector count : 0

Track 05
Filename : /Volumes/500GB HD/Christopher Houlihan - Plays Bach (2017) [FLAC]/Christopher Houlihan - Christopher Houlihan Plays Bach (2017) [FLAC]/05 Italian Concerto, BWV 971 "Presto".flac

Track gain : 3.19 dB
Peak : 0.613678
CRC32 hash (test run) : DECAA391
CRC32 hash : DECAA391
CRC32 hash (skip zero) : 54CE22CD
AccurateRip v1 signature : 93C6EBC6
AccurateRip v2 signature : 1006E7C6
->Track not present in AccurateRip database.
Statistics
Read error : 0
Jitter error (maybe fixed) : 0
Retry sector count : 0
Damaged sector count : 0

Track 06
Filename : /Volumes/500GB HD/Christopher Houlihan - Plays Bach (2017) [FLAC]/Christopher Houlihan - Christopher Houlihan Plays Bach (2017) [FLAC]/06 Prelude in B Minor, BWV 544.flac

Track gain : 4.74 dB
Peak : 0.438629
CRC32 hash (test run) : CB669958
CRC32 hash : CB669958
CRC32 hash (skip zero) : 77C221FB
AccurateRip v1 signature : 728A9844
AccurateRip v2 signature : DC2CCF07
->Track not present in AccurateRip database.
Statistics
Read error : 0
Jitter error (maybe fixed) : 0
Retry sector count : 0
Damaged sector count : 0

Track 07
Filename : /Volumes/500GB HD/Christopher Houlihan - Plays Bach (2017) [FLAC]/Christopher Houlihan - Christopher Houlihan Plays Bach (2017) [FLAC]/07 Fugue in B Minor, BWV 544.flac

Track gain : -1.77 dB
Peak : 0.919342
CRC32 hash (test run) : C1A2D6F2
CRC32 hash : C1A2D6F2
CRC32 hash (skip zero) : D1E5B6E4
AccurateRip v1 signature : A8B5884F
AccurateRip v2 signature : 87DF9EBD
->Track not present in AccurateRip database.
Statistics
Read error : 0
Jitter error (maybe fixed) : 0
Retry sector count : 0
Damaged sector count : 0

Track 08
Filename : /Volumes/500GB HD/Christopher Houlihan - Plays Bach (2017) [FLAC]/Christopher Houlihan - Christopher Houlihan Plays Bach (2017) [FLAC]/08 Trio Sonata in G Major, BWV 530 "Vivace".flac

Track gain : 12.15 dB
Peak : 0.157257
CRC32 hash (test run) : 8198347C
CRC32 hash : 8198347C
CRC32 hash (skip zero) : 2CF82CC8
AccurateRip v1 signature : F016E732
AccurateRip v2 signature : 71EAA201
->Track not present in AccurateRip database.
Statistics
Read error : 0
Jitter error (maybe fixed) : 0
Retry sector count : 0
Damaged sector count : 0

Track 09
Filename : /Volumes/500GB HD/Christopher Houlihan - Plays Bach (2017) [FLAC]/Christopher Houlihan - Christopher Houlihan Plays Bach (2017) [FLAC]/09 Trio Sonata in G Major, BWV 530 "Lento".flac

Track gain : 12.51 dB
Peak : 0.137177
CRC32 hash (test run) : 66E64D2F
CRC32 hash : 66E64D2F
CRC32 hash (skip zero) : 060A2758
AccurateRip v1 signature : 6F9057B3
AccurateRip v2 signature : A2DA3831
->Track not present in AccurateRip database.
Statistics
Read error : 0
Jitter error (maybe fixed) : 0
Retry sector count : 0
Damaged sector count : 0

Track 10
Filename : /Volumes/500GB HD/Christopher Houlihan - Plays Bach (2017) [FLAC]/Christopher Houlihan - Christopher Houlihan Plays Bach (2017) [FLAC]/10 Trio Sonata in G Major, BWV 530 "Allegro".flac

Track gain : 11.16 dB
Peak : 0.167725
CRC32 hash (test run) : 289285F6
CRC32 hash : 289285F6
CRC32 hash (skip zero) : 0340AAD5
AccurateRip v1 signature : 6FB6B2FE
AccurateRip v2 signature : A3B20D6D
->Track not present in AccurateRip database.
Statistics
Read error : 0
Jitter error (maybe fixed) : 0
Retry sector count : 0
Damaged sector count : 0

Track 11
Filename : /Volumes/500GB HD/Christopher Houlihan - Plays Bach (2017) [FLAC]/Christopher Houlihan - Christopher Houlihan Plays Bach (2017) [FLAC]/11 Toccata in C Major, BWV 564.flac

Track gain : 2.37 dB
Peak : 0.691650
CRC32 hash (test run) : F44EED05
CRC32 hash : F44EED05
CRC32 hash (skip zero) : 94AEA82B
AccurateRip v1 signature : 9DE47ED2
AccurateRip v2 signature : 318281B7
->Track not present in AccurateRip database.
Statistics
Read error : 0
Jitter error (maybe fixed) : 0
Retry sector count : 0
Damaged sector count : 0

Track 12
Filename : /Volumes/500GB HD/Christopher Houlihan - Plays Bach (2017) [FLAC]/Christopher Houlihan - Christopher Houlihan Plays Bach (2017) [FLAC]/12 Adagio in C Major, BWV 564.flac

Track gain : 12.19 dB
Peak : 0.213654
CRC32 hash (test run) : CFCA8F85
CRC32 hash : CFCA8F85
CRC32 hash (skip zero) : 5AB6ACFD
AccurateRip v1 signature : B4B4CC9C
AccurateRip v2 signature : CD155E84
->Track not present in AccurateRip database.
Statistics
Read error : 0
Jitter error (maybe fixed) : 0
Retry sector count : 0
Damaged sector count : 0

Track 13
Filename : /Volumes/500GB HD/Christopher Houlihan - Plays Bach (2017) [FLAC]/Christopher Houlihan - Christopher Houlihan Plays Bach (2017) [FLAC]/13 Fugue in C Major, BWV 564.flac

Track gain : 2.12 dB
Peak : 0.879913
CRC32 hash (test run) : 8A0333F0
CRC32 hash : 8A0333F0
CRC32 hash (skip zero) : 9E49127C
AccurateRip v1 signature : B97FF3FC
AccurateRip v2 signature : 3ABFB193
->Track not present in AccurateRip database.
Statistics
Read error : 0
Jitter error (maybe fixed) : 0
Retry sector count : 0
Damaged sector count : 0

Track 14
Filename : /Volumes/500GB HD/Christopher Houlihan - Plays Bach (2017) [FLAC]/Christopher Houlihan - Christopher Houlihan Plays Bach (2017) [FLAC]/14 Passacaglia in C Minor, BWV 582.flac

Track gain : -1.23 dB
Peak : 0.936829
CRC32 hash (test run) : BC2F3DFF
CRC32 hash : BC2F3DFF
CRC32 hash (skip zero) : BD056748
AccurateRip v1 signature : A7C3A9EB
AccurateRip v2 signature : 6C21AFAA
->Track not present in AccurateRip database.
Statistics
Read error : 0
Jitter error (maybe fixed) : 0
Retry sector count : 0
Damaged sector count : 0

Track 15
Filename : /Volumes/500GB HD/Christopher Houlihan - Plays Bach (2017) [FLAC]/Christopher Houlihan - Christopher Houlihan Plays Bach (2017) [FLAC]/15 Fugue in C Minor, BWV 582.flac

Track gain : -4.15 dB
Peak : 0.943420
CRC32 hash (test run) : 75A55BA2
CRC32 hash : 75A55BA2
CRC32 hash (skip zero) : 0C7754DB
AccurateRip v1 signature : 5B4CBC9F
AccurateRip v2 signature : CE09D223
->Track not present in AccurateRip database.
Statistics
Read error : 0
Jitter error (maybe fixed) : 0
Retry sector count : 0
Damaged sector count : 0

No errors occurred

End of status report

––-BEGIN XLD SIGNATURE––-
WTRJqkzPEMXDS88qD2x2PeQvG2ZpClJWlkbHgQsZ3xMLZs4qLuoIWSd9FaGUgJeiDuGv_5P1PxXQO4fWg_8plIGjE25hU4QCxSwe9Wy
––-END XLD SIGNATURE––-


Christopher Houlihan - Plays Bach (2017)


Thanks to the Original customer.