Subcategories

Poco - Indian Summer (1977) [Reissue 2004]

Posted By: Andi_Deris
Poco - Indian Summer (1977) [Reissue 2004]

Poco - Indian Summer (1977) [Reissue 2004]
XLD Rip | FLAC: Tracks+Cue+Log | 291 Mb | MP3 CBR 320 kbps | 105 Mb | Time: 40:49
Genre: Rock, Country Rock | Label: Lemon Recordings | Cat.: CD LEM 32

Indian Summer is the 12th album by the Country rock band Poco, released in 1977. This was the band's last studio album before both Timothy B. Schmit and George Grantham left the group. After years of being out of print in the US, England's Lemon Recordings has now re-released POCO's excellent "Indian Summer".

Poco - Indian Summer (1977) [Reissue 2004]




Poco - Indian Summer (1977) [Reissue 2004]


Track Listing

01. Indian Summer (4:40)
02. Twenty Years (3:42)
03. Me And You (2:44)
04. Downfall (4:33)
05. Win Or Lose (4:40)
06. Living In The Band (3:14)
07. Stay (Night Until Noon) (3:22)
08. Find Out In Time (3:54)
09. The Dance (10:00)
- When The Dance Is Over
- Go On And Dance
- Never Gonna Stop
- (Reprise) When The Dance Is Over

Produced by Poco and Mark Harman

The Band

• Paul Cotton - guitar, vocals
• Rusty Young - steel guitar, guitar, vocals
• Timothy B. Schmit - bass, vocals
• George Grantham - drums, vocals

• Donald Fagen - synthesizer
• Steve Forman - percussion
• Mark Henry Harman - keyboards, celeste, cello

From the sound of the guitars to the structure of the harmonies, Poco music is an American Treasure that should be given a second chance by everyone. The comparisons to the Eagles overall are fair, but each band has its own positive points and its own negative ones. The Eagles were duo in wolf's clothing that approached success in music like success in professional sports. Poco is a band that worked together as a group of friends. If the music business was a big picnic, you could see Poco sitting on your front porch playing and singing. Whereas the Eagles would be trying to get a game of football going while Henley pontificated to anyone who would listen about the condition of the world. Undeniably, both make great music. Poco was the only real BAND that came out of the Buffalo Springfield. Both Stills and Young were, and always have been, solo artists that wish they could belong to bands, but never have been able to. Poco is a long-term entity that has held together through times of success and times of frustration. They have always been better musicians than the Eagles, but they will never get the credit. To compare this to Hotel California is unfair. The real point of comparison is the solo work of Stills and Young, especially during this time period. The guitar work on Indian Summer is considerably stronger than anything Stills was doing at the time. The songwriting is better than Young's was at the time. You can rave about On the Beach and Tonight's the Night all you want, they are both good albums that say something about the time of their creation, but how often do you really listen those downers? Indian Summer shines. Twenty Years is a solid song that could easily open to an Allman Brothers-like jam if they wanted it to. Living in the Band is a rocker that is right up there with A Good Feelin' to Know. The Dance is a really interesting experiment that comes very, very close to working. There are many echoes of Springfield throughout this CD, yet it is still the sound of a band that works together for the benefit of the music, not each other's solo careers. Sonically, I am just glad the CD has been released. It sounds ok, but I have heard a bit better. Some of the criticism the earlier reviewers have offered about the mastering is close, but it still sounds miles above anything that preceded it. In short, this is a great Poco CD that channels Springfield more than they ever did before. It also sounds a lot better than it did at the time. Give it a chance. ~ by KSP

X Lossless Decoder version 20120226 (139.1)

XLD extraction logfile from 2012-04-05 03:47:04 +0000

Poco / Indian Summer

Used drive : HL-DT-ST DVDRW GA32N (revision KE06)

Ripper mode : XLD Secure Ripper
Disable audio cache : OK for the drive with a cache less than 1375KiB
Make use of C2 pointers : NO
Read offset correction : 103
Max retry count : 20
Gap status : Analyzed, Appended (except HTOA)

TOC of the extracted CD
Track | Start | Length | Start sector | End sector
––––––––––––––––––––––––––––-
1 | 00:00:00 | 04:40:26 | 0 | 21025
2 | 04:40:26 | 03:42:37 | 21026 | 37712
3 | 08:22:63 | 02:44:03 | 37713 | 50015
4 | 11:06:66 | 04:33:40 | 50016 | 70530
5 | 15:40:31 | 04:40:64 | 70531 | 91594
6 | 20:21:20 | 03:14:53 | 91595 | 106197
7 | 23:35:73 | 03:22:01 | 106198 | 121348
8 | 26:57:74 | 03:54:32 | 121349 | 138930
9 | 30:52:31 | 10:00:38 | 138931 | 183968

List of alternate offset correction values
# | Absolute | Relative | Confidence
–––––––––––––––––––––
1 | 121 | 18 | 6

AccurateRip Summary
Track 01 : OK (AR2, confidence 2, with different offset)
Track 02 : OK (AR2, confidence 2, with different offset)
Track 03 : OK (AR2, confidence 2, with different offset)
Track 04 : OK (AR2, confidence 2, with different offset)
Track 05 : OK (AR2, confidence 2, with different offset)
Track 06 : OK (AR2, confidence 2, with different offset)
Track 07 : OK (AR2, confidence 2, with different offset)
Track 08 : OK (AR2, confidence 2, with different offset)
Track 09 : OK (AR2, confidence 2, with different offset)
->All tracks accurately ripped.

All Tracks
Album gain : -7.80 dB
Peak : 0.995880
Statistics
Read error : 0
Jitter error (maybe fixed) : 0
Retry sector count : 0
Damaged sector count : 0

Track 01
Filename : /Volumes/Public-1/Shared Music/Rips for what.cd/Poco - Indian Summer (1977) [FLAC]/01 Indian Summer.flac
Pre-gap length : 00:02:00

Track gain : -6.57 dB
Peak : 0.994415
CRC32 hash (test run) : DF4DC2B1
CRC32 hash : DF4DC2B1
CRC32 hash (skip zero) : A8FFFEC5
AccurateRip signature : D0B4370D
->Accurately ripped! (AR2, confidence 2)
(matched with the different offset correction value;
calculated using an additional offset of 18;
the signature after correction is: 7CDE2DA0)
Statistics
Read error : 0
Jitter error (maybe fixed) : 0
Retry sector count : 0
Damaged sector count : 0

Track 02
Filename : /Volumes/Public-1/Shared Music/Rips for what.cd/Poco - Indian Summer (1977) [FLAC]/02 Twenty Years.flac
Pre-gap length : 00:03:09

Track gain : -8.11 dB
Peak : 0.995056
CRC32 hash (test run) : 458C606D
CRC32 hash : 458C606D
CRC32 hash (skip zero) : C26E98F7
AccurateRip signature : 8EEF8FC0
->Accurately ripped! (AR2, confidence 2)
(matched with the different offset correction value;
calculated using an additional offset of 18;
the signature after correction is: 5E414164)
Statistics
Read error : 0
Jitter error (maybe fixed) : 0
Retry sector count : 0
Damaged sector count : 0

Track 03
Filename : /Volumes/Public-1/Shared Music/Rips for what.cd/Poco - Indian Summer (1977) [FLAC]/03 Me And You.flac
Pre-gap length : 00:03:62

Track gain : -7.71 dB
Peak : 0.994568
CRC32 hash (test run) : C415889C
CRC32 hash : C415889C
CRC32 hash (skip zero) : 37A9D990
AccurateRip signature : 65EFC5B4
->Accurately ripped! (AR2, confidence 2)
(matched with the different offset correction value;
calculated using an additional offset of 18;
the signature after correction is: 6996CAE9)
Statistics
Read error : 0
Jitter error (maybe fixed) : 0
Retry sector count : 0
Damaged sector count : 0

Track 04
Filename : /Volumes/Public-1/Shared Music/Rips for what.cd/Poco - Indian Summer (1977) [FLAC]/04 Downfall.flac
Pre-gap length : 00:02:25

Track gain : -9.02 dB
Peak : 0.995880
CRC32 hash (test run) : 67EF3BCF
CRC32 hash : 67EF3BCF
CRC32 hash (skip zero) : A2AE0762
AccurateRip signature : DECD925C
->Accurately ripped! (AR2, confidence 2)
(matched with the different offset correction value;
calculated using an additional offset of 18;
the signature after correction is: 186F0A2A)
Statistics
Read error : 0
Jitter error (maybe fixed) : 0
Retry sector count : 0
Damaged sector count : 0

Track 05
Filename : /Volumes/Public-1/Shared Music/Rips for what.cd/Poco - Indian Summer (1977) [FLAC]/05 Win Or Lose.flac
Pre-gap length : 00:03:42

Track gain : -7.07 dB
Peak : 0.994843
CRC32 hash (test run) : 2EC14799
CRC32 hash : 2EC14799
CRC32 hash (skip zero) : 100F022C
AccurateRip signature : 1BF8ECAB
->Accurately ripped! (AR2, confidence 2)
(matched with the different offset correction value;
calculated using an additional offset of 18;
the signature after correction is: 199A77DD)
Statistics
Read error : 0
Jitter error (maybe fixed) : 0
Retry sector count : 0
Damaged sector count : 0

Track 06
Filename : /Volumes/Public-1/Shared Music/Rips for what.cd/Poco - Indian Summer (1977) [FLAC]/06 Living In The Band.flac
Pre-gap length : 00:03:25

Track gain : -7.55 dB
Peak : 0.995026
CRC32 hash (test run) : 63915ABC
CRC32 hash : 63915ABC
CRC32 hash (skip zero) : 53E00C95
AccurateRip signature : 9D7E91DD
->Accurately ripped! (AR2, confidence 2)
(matched with the different offset correction value;
calculated using an additional offset of 18;
the signature after correction is: 61179839)
Statistics
Read error : 0
Jitter error (maybe fixed) : 0
Retry sector count : 0
Damaged sector count : 0

Track 07
Filename : /Volumes/Public-1/Shared Music/Rips for what.cd/Poco - Indian Summer (1977) [FLAC]/07 Stay (Night Until Noon).flac
Pre-gap length : 00:00:13

Track gain : -7.80 dB
Peak : 0.994751
CRC32 hash (test run) : 77D49B5D
CRC32 hash : 77D49B5D
CRC32 hash (skip zero) : 1BF55C8B
AccurateRip signature : E47933E4
->Accurately ripped! (AR2, confidence 2)
(matched with the different offset correction value;
calculated using an additional offset of 18;
the signature after correction is: 68087899)
Statistics
Read error : 0
Jitter error (maybe fixed) : 0
Retry sector count : 0
Damaged sector count : 0

Track 08
Filename : /Volumes/Public-1/Shared Music/Rips for what.cd/Poco - Indian Summer (1977) [FLAC]/08 Find Out In Time.flac
Pre-gap length : 00:03:27

Track gain : -4.91 dB
Peak : 0.992828
CRC32 hash (test run) : C1BEEFB9
CRC32 hash : C1BEEFB9
CRC32 hash (skip zero) : 473B0F3A
AccurateRip signature : E897A541
->Accurately ripped! (AR2, confidence 2)
(matched with the different offset correction value;
calculated using an additional offset of 18;
the signature after correction is: E55D02E1)
Statistics
Read error : 0
Jitter error (maybe fixed) : 0
Retry sector count : 0
Damaged sector count : 0

Track 09
Filename : /Volumes/Public-1/Shared Music/Rips for what.cd/Poco - Indian Summer (1977) [FLAC]/09 The Dance.flac
Pre-gap length : 00:01:63

Track gain : -7.52 dB
Peak : 0.994659
CRC32 hash (test run) : 77A37245
CRC32 hash : 77A37245
CRC32 hash (skip zero) : 2BC2AC8A
AccurateRip signature : 5CB7329C
->Accurately ripped! (AR2, confidence 2)
(matched with the different offset correction value;
calculated using an additional offset of 18;
the signature after correction is: 81B951C8)
Statistics
Read error : 0
Jitter error (maybe fixed) : 0
Retry sector count : 0
Damaged sector count : 0

No errors occurred

End of status report


vinyl

Many thanks to the original uploader: andrew91

––––––––––
Nitroflare