Subcategories

Poco - Rose Of Cimarron (1976) [Japanese Ed. 1994]

Posted By: Andi_Deris
Poco - Rose Of Cimarron (1976) [Japanese Ed. 1994]

Poco - Rose Of Cimarron (1976) [Japanese Ed. 1994]
XLD Rip | FLAC: Tracks+Cue+Log | 220 Mb | MP3 CBR 320 kbps | 86 Mb | Scans | Time: 35:56
Genre: Rock, Country Rock | Label: Victor, Inc. | Cat.: MVCM-18009

Rose Of Cimarron is the 11th album by the country rock band Poco, released May 1976. Former Loggins & Messina sax/fiddle player Al Garth joined the band to record this album, but left shortly after due to internal conflicts. The title track became one of the band's signature songs, and was later recorded by Emmylou Harris on her album, Cimarron. Special and interesting country rock mix fused with occasional folk and soft rock elements. A great album from start to finish. Highly recommended!

Poco - Rose Of Cimarron (1976) [Japanese Ed. 1994]




Poco - Rose Of Cimarron (1976) [Japanese Ed. 1994]


Track Listing

01. Rose Of Cimarron (6:44)
02. Stealaway (3:13)
03. Just Like Me (2:46)
04. Company's Comin' (2:37)
05. Slow Poke (2:07)
06. Too Many Nights Too Long (6:04)
07. P.N.S. (When You Come Around) (3:19)
08. Starin' At The Sky (3:00)
09. All Alone, Together (3:24)
10. Tulsa Turnaround (2:42)

Produced by Poco and Mark Harman

The Band

• Paul Cotton - guitar, vocals
• Rusty Young - steel guitar, guitar, vocals
• Timothy B. Schmit - bass, vocals
• George Grantham - drums, vocals

• Al Garth - fiddle, flute, violin, sax, vocals
• Mark Henry Harman - keyboards, celeste, cello
• Milt Holland - percussion, marimba, washboard
• Johnny Logan - banjo
• Paul Weller - guitar, vocals
• Tom Sellers - piano
• Steve Ferguson - piano

X Lossless Decoder version 20090910 (109.7)

XLD extraction logfile from 2009-09-15 23:28:44 -0500

Poco / Rose Of Cimarron

Used drive : MATSHITA DVD-R UJ-868 (revision KA19)

Use cdparanoia mode : YES (CDParanoia III 10.2 engine)
Disable audio cache : OK for the drive with cache less than 2750KB
Make use of C2 pointers : NO
Read offset correction : 102
Max retry count : 100

TOC of the extracted CD
Track | Start | Length | Start sector | End sector
––––––––––––––––––––––––––––-
1 | 00:00:37 | 06:44:13 | 37 | 30349
2 | 06:44:50 | 03:13:47 | 30350 | 44871
3 | 09:58:22 | 02:46:28 | 44872 | 57349
4 | 12:44:50 | 02:37:05 | 57350 | 69129
5 | 15:21:55 | 02:07:22 | 69130 | 78676
6 | 17:29:02 | 06:04:43 | 78677 | 106019
7 | 23:33:45 | 03:19:25 | 106020 | 120969
8 | 26:52:70 | 03:00:65 | 120970 | 134534
9 | 29:53:60 | 03:24:55 | 134535 | 149889
10 | 33:18:40 | 02:42:45 | 149890 | 162084

Track 01
Filename : /Users/andrew/Music/XLD encodes/Poco - 1976 - Rose of Cimarron (FLAC)/01 Poco - Rose Of Cimarron.flac

CRC32 hash (test run) : 09D4AE1D
CRC32 hash : 09D4AE1D
CRC32 hash (skip zero) : 5FAE0D66
AccurateRip signature : 70D44C56
->Track not present in AccurateRip database.
Statistics
Read error : 0
Skipped (treated as error) : 0
Edge jitter error (maybe fixed) : 0
Atom jitter error (maybe fixed) : 0
Drift error (maybe fixed) : 0
Dropped bytes error (maybe fixed) : 0
Duplicated bytes error (maybe fixed) : 0
Inconsistency in error sectors : 0

Track 02
Filename : /Users/andrew/Music/XLD encodes/Poco - 1976 - Rose of Cimarron (FLAC)/02 Poco - Stealaway.flac

CRC32 hash (test run) : BC2326C1
CRC32 hash : BC2326C1
CRC32 hash (skip zero) : B83A8ECA
AccurateRip signature : 10F49454
->Accurately ripped! (confidence 1)
Statistics
Read error : 0
Skipped (treated as error) : 0
Edge jitter error (maybe fixed) : 0
Atom jitter error (maybe fixed) : 0
Drift error (maybe fixed) : 0
Dropped bytes error (maybe fixed) : 0
Duplicated bytes error (maybe fixed) : 0
Inconsistency in error sectors : 0

Track 03
Filename : /Users/andrew/Music/XLD encodes/Poco - 1976 - Rose of Cimarron (FLAC)/03 Poco - Just Like Me.flac

CRC32 hash (test run) : 343ED0B8
CRC32 hash : 343ED0B8
CRC32 hash (skip zero) : 62EF02E9
AccurateRip signature : E1F3BA3A
->Accurately ripped! (confidence 1)
Statistics
Read error : 0
Skipped (treated as error) : 0
Edge jitter error (maybe fixed) : 0
Atom jitter error (maybe fixed) : 0
Drift error (maybe fixed) : 0
Dropped bytes error (maybe fixed) : 0
Duplicated bytes error (maybe fixed) : 0
Inconsistency in error sectors : 0

Track 04
Filename : /Users/andrew/Music/XLD encodes/Poco - 1976 - Rose of Cimarron (FLAC)/04 Poco - Company's Comin'.flac

CRC32 hash (test run) : DC678CB1
CRC32 hash : DC678CB1
CRC32 hash (skip zero) : 24C4E6AB
AccurateRip signature : 2A0B252E
->Accurately ripped! (confidence 1)
Statistics
Read error : 0
Skipped (treated as error) : 0
Edge jitter error (maybe fixed) : 0
Atom jitter error (maybe fixed) : 0
Drift error (maybe fixed) : 0
Dropped bytes error (maybe fixed) : 0
Duplicated bytes error (maybe fixed) : 0
Inconsistency in error sectors : 0

Track 05
Filename : /Users/andrew/Music/XLD encodes/Poco - 1976 - Rose of Cimarron (FLAC)/05 Poco - Slow Poke.flac

CRC32 hash (test run) : 1D4FC080
CRC32 hash : 1D4FC080
CRC32 hash (skip zero) : F0023460
AccurateRip signature : 5E7C4104
->Accurately ripped! (confidence 1)
Statistics
Read error : 0
Skipped (treated as error) : 0
Edge jitter error (maybe fixed) : 0
Atom jitter error (maybe fixed) : 0
Drift error (maybe fixed) : 0
Dropped bytes error (maybe fixed) : 0
Duplicated bytes error (maybe fixed) : 0
Inconsistency in error sectors : 0

Track 06
Filename : /Users/andrew/Music/XLD encodes/Poco - 1976 - Rose of Cimarron (FLAC)/06 Poco - Too Many Nights Too Long.flac

CRC32 hash (test run) : B81F0DF6
CRC32 hash : B81F0DF6
CRC32 hash (skip zero) : 6C2F900E
AccurateRip signature : 8CBC8E8C
->Accurately ripped! (confidence 1)
Statistics
Read error : 0
Skipped (treated as error) : 0
Edge jitter error (maybe fixed) : 0
Atom jitter error (maybe fixed) : 0
Drift error (maybe fixed) : 0
Dropped bytes error (maybe fixed) : 0
Duplicated bytes error (maybe fixed) : 0
Inconsistency in error sectors : 0

Track 07
Filename : /Users/andrew/Music/XLD encodes/Poco - 1976 - Rose of Cimarron (FLAC)/07 Poco - P.N.S. (When You Come Around).flac

CRC32 hash (test run) : 3CE3000B
CRC32 hash : 3CE3000B
CRC32 hash (skip zero) : 903AF34B
AccurateRip signature : BA87AF1C
->Accurately ripped! (confidence 1)
Statistics
Read error : 0
Skipped (treated as error) : 0
Edge jitter error (maybe fixed) : 0
Atom jitter error (maybe fixed) : 0
Drift error (maybe fixed) : 0
Dropped bytes error (maybe fixed) : 0
Duplicated bytes error (maybe fixed) : 0
Inconsistency in error sectors : 0

Track 08
Filename : /Users/andrew/Music/XLD encodes/Poco - 1976 - Rose of Cimarron (FLAC)/08 Poco - Starin' At The Sky.flac

CRC32 hash (test run) : D69D92EA
CRC32 hash : D69D92EA
CRC32 hash (skip zero) : 26EABD25
AccurateRip signature : F8D6C0EE
->Accurately ripped! (confidence 1)
Statistics
Read error : 0
Skipped (treated as error) : 0
Edge jitter error (maybe fixed) : 0
Atom jitter error (maybe fixed) : 0
Drift error (maybe fixed) : 0
Dropped bytes error (maybe fixed) : 0
Duplicated bytes error (maybe fixed) : 0
Inconsistency in error sectors : 0

Track 09
Filename : /Users/andrew/Music/XLD encodes/Poco - 1976 - Rose of Cimarron (FLAC)/09 Poco - All Alone, Together.flac

CRC32 hash (test run) : 48032624
CRC32 hash : 48032624
CRC32 hash (skip zero) : 7828837B
AccurateRip signature : 10143EDD
->Accurately ripped! (confidence 1)
Statistics
Read error : 0
Skipped (treated as error) : 0
Edge jitter error (maybe fixed) : 0
Atom jitter error (maybe fixed) : 0
Drift error (maybe fixed) : 0
Dropped bytes error (maybe fixed) : 0
Duplicated bytes error (maybe fixed) : 0
Inconsistency in error sectors : 0

Track 10
Filename : /Users/andrew/Music/XLD encodes/Poco - 1976 - Rose of Cimarron (FLAC)/10 Poco - Tulsa Turnaround.flac

CRC32 hash (test run) : FC987F54
CRC32 hash : FC987F54
CRC32 hash (skip zero) : 88937887
AccurateRip signature : 261DD714
->Accurately ripped! (confidence 1)
Statistics
Read error : 0
Skipped (treated as error) : 0
Edge jitter error (maybe fixed) : 0
Atom jitter error (maybe fixed) : 0
Drift error (maybe fixed) : 0
Dropped bytes error (maybe fixed) : 0
Duplicated bytes error (maybe fixed) : 0
Inconsistency in error sectors : 0

No errors occurred

End of status report


Many thanks to the original uploader: deetneck

––––––––––
Nitroflare