Subcategories
Tags
Language
Tags

Pop Masina - Na Izvoru Svetlosti (1975)

Posted By: v3122
Pop Masina - Na Izvoru Svetlosti (1975)

Pop Masina - Na Izvoru Svetlosti (1975)
EAC | Flac(Image) + Cue + Log & MP3 CBR 320Kbps
2014 | Atlantide, ATLANTIDE 05 | ~ 199 or 82 Mb | Scans(jpg) -> 4.83 Mb
Heavy Prog | Unofficial Release

POP MASINA was formed in early 1972 in Belgrade, Serbia by Robert Nemecek (bass, vocal), Zoran Bozinovic (guitar, vocal), Rasa Djelmas (drums) and Sava Bojic (guitar, vocal). By the end of that year, Bojic left while Djelmas was replaced by Mihajlo Popovic, thus forming the best known power trio line-up.

During 1972/73 they built a reputation of a concert attraction, playing extended "progressive heavy rock" jams for free. Debut album "Kiselina" was recorded in 1973. It presented a conceptual work dealing with themes of drugs and psychedelic trips (the title "Kiselina" is a literal translation of English "Acid"). Until the end of 1976 POP MASINA released two more albums: studio "Na izvoru svetlosti" and live "Put ka suncu", the latter being the first full-fledged live rock album by a single artist (earlier live albums were usually recorded on festivals, with various artists) issued in Yugoslavia. Prior to this, only KORNI GRUPA had released double LP "Mrtvo more", which was half-live and half-studio singles collection.

In late 1976 the group split-up leaving Zoran Bozinovic as the sole original member, who then re-assembled the band with Dusan Petrovic (bass), Dusan Djukic (drums) and Zoran's brother Vidoja "Ginger" Bozinovic (guitar). They tried to change the style, approaching jazz-rock territory, but after one unsuccessful single the group finally disbanded in late 1977. Robert Nemecek renewed the band under the name ROK MASINA in early 1980s but this group also failed to chart, leaving two unnoticed records.

POP MASINA was an influential band in ex Yugoslavia and one of the pioneers of heavy, "acid-rock". Their music was similar to classic heavy blues-rock giants such as BLACK SABBATH, CREAM or LED ZEPPELIN, joining early 1970s heavy metal roots with post-hippie psychedelic ballads. Loud solo guitars and wild shouting of Zoran Bozinovic was matched with mellow, acoustic ballads of Robert Nemecek sometimes containing flute and organ. Both studio albums, "Kiselina" and "Na izvoru svetlosti" are favoured rarities among the classic prog rock aficionados.

~ progarchives
Pop Masina - Na Izvoru Svetlosti (1975):

Pop Masina - Na Izvoru Svetlosti (1975)

Tracklist:

01. Vreme Za Nas
02. Negde Daleko
03. Rekvijem Za Prijatelja
04. Secanja
05. Na Izvoru
06. Zemlja Svetlosti
07. Kraj II

Musicians:

Zoran Bozinovic - Guitar, Voice
Robert Nemecek - Bass Guitar, Acoustic Guitar, Percussion, Voice
Mihajlo Popovic - Drums, Percussion

Slobodan Markovic - Organ, Piano, Roland Synthesizer
Ljubomir Ninkovic - Acoustic Guitar, Percussion
Franjo Bergar - Oboe
Bozo Mihelcic - Violin
Karel Zuzek - Violin
Anton Care - Cello
Stane Demsar - Cello


Exact Audio Copy V1.1 from 23. June 2015

EAC extraction logfile from 23. November 2017, 21:16

Pop Mašina / Na Izvoru Svetlosti

Used drive : TSSTcorpCDDVDW SH-224DB Adapter: 1 ID: 0

Read mode : Secure
Utilize accurate stream : Yes
Defeat audio cache : Yes
Make use of C2 pointers : No

Read offset correction : 6
Overread into Lead-In and Lead-Out : No
Fill up missing offset samples with silence : Yes
Delete leading and trailing silent blocks : No
Null samples used in CRC calculations : Yes
Used interface : Native Win32 interface for Win NT & 2000

Used output format : User Defined Encoder
Selected bitrate : 1024 kBit/s
Quality : High
Add ID3 tag : No
Command line compressor : C:\Program Files (x86)\Exact Audio Copy\win64\flac.exe
Additional command line options : -8 -V -T "ARTIST=%artist%" -T "TITLE=%title%" -T "ALBUM=%albumtitle%" -T "DATE=%year%" -T "TRACKNUMBER=%tracknr%" -T "GENRE=%genre%" -T "COMMENT=%comment%" %source% -o %dest%


TOC of the extracted CD

Track | Start | Length | Start sector | End sector
––––––––––––––––––––––––––––-
1 | 0:00.00 | 5:53.08 | 0 | 26482
2 | 5:53.08 | 6:44.29 | 26483 | 56811
3 | 12:37.37 | 4:09.64 | 56812 | 75550
4 | 16:47.26 | 4:22.65 | 75551 | 95265
5 | 21:10.16 | 5:09.08 | 95266 | 118448
6 | 26:19.24 | 6:08.17 | 118449 | 146065
7 | 32:27.41 | 1:26.64 | 146066 | 152579


Range status and errors

Selected range

Filename F:\Sket4er\Pop Mašina – Na Izvoru Svetlosti (1975) 2014\Pop Mašina - Na Izvoru Svetlosti.wav

Peak level 96.6 %
Extraction speed 2.8 X
Range quality 100.0 %
Test CRC 71A7361B
Copy CRC 71A7361B
Copy OK

No errors occurred


AccurateRip summary

Track 1 not present in database
Track 2 not present in database
Track 3 not present in database
Track 4 not present in database
Track 5 not present in database
Track 6 not present in database
Track 7 not present in database

None of the tracks are present in the AccurateRip database

End of status report

–– CUETools DB Plugin V2.1.6

[CTDB TOCID: I0ujP6IdOUiGsQ48i0Sboyt22Fg-] found
Submit result: I0ujP6IdOUiGsQ48i0Sboyt22Fg- has been uploaded
Track | CTDB Status
1 | (1/1) Differs in 3 samples @02:26:64
2 | (1/1) Accurately ripped
3 | (1/1) Accurately ripped
4 | (1/1) Accurately ripped
5 | (1/1) Accurately ripped
6 | (1/1) Accurately ripped
7 | (1/1) Accurately ripped
If you are sure that your rip contains errors, you can use CUETools to repair it.


==== Log checksum 5CE234286965F4730005B4578551B605D323844DE52691185FDB62DFE711C189 ====


[CUETools log; Date: 28.11.2017 16:04:46; Version: 2.1.5]
[AccurateRip ID: 000a3de7-003c5c15-6007f207] disk not present in database.

Track Peak [ CRC32 ] [W/O NULL] [ LOG ]
– 96,6 [71A7361B] [7B28CC5E] CRC32
01 96,6 [9C2DBDF6] [8C520B47]
02 96,6 [A269E0C8] [D01F9E70]
03 96,6 [98B96EA9] [24D12562]
04 96,6 [F21D7AFC] [0A9FB868]
05 96,6 [1D370C50] [893E90D7]
06 96,6 [DBB2CF44] [E8ED236E]
07 96,6 [FE4093EB] [BA6E399B]


Pop Masina - Na Izvoru Svetlosti (1975)

All thanks go to Sket4er

Download Pop Masina - Na Izvoru Svetlosti (1975):