Subcategories

Queen - Classic Queen (1992)

Posted By: Oksana_m
Queen - Classic Queen (1992)

Queen - Classic Queen (1992)
EAC | Flac(Image) + Cue + Log > 468 Mb | Mp3 CBR 320Kpbs > 175 Mb
Hard/Prog/Classic Rock | TT - 74:20 | Label: Hollywood | Cat. # HR-61311-2 | US
Scans (png) > 85 Mb | IcerBox

Essentially, this 17-track album is a second-volume Queen's Greatest Hits, picking up the story from that album's 1981 release and taking it to the end of Queen's career. But the album also contains a few tracks – "Bohemian Rhapsody," "Keep Yourself Alive," and "Under Pressure" – that appeared on that first set, as well as a couple – "Stone Cold Crazy" and "Tie Your Mother Down" – from the same era. The remaining 12 tracks, culled from The Works, A Kind of Magic, The Miracle, and Innuendo, represent songs that were not big hits in the U.S. Nevertheless, with a resurgence of interest in Queen and the second coming of "Bohemian Rhapsody," courtesy of Wayne's World, this album returned Queen to platinum status and the U.S. Top Five for the first time since the early '80s.

by William Ruhlmann, allmusic.com
Queen - Classic Queen (1992)


*********


Queen - Classic Queen (1992)

Tracklist:

01. A Kind Of Magic [04:25]
02. Bohemian Rhapsody [05:55]
03. Under Pressure [04:03]
04. Hammer To Fall [03:40]
05. Stone Cold Crazy [02:15]
06. One Year Of Love [04:28]
07. Radio Ga Ga [05:48]
08. I'm Going Slightly Mad [04:23]
09. I Want It All [04:01]
10. Tie Your Mother Down [03:45]
11. The Miracle [04:24]
12. These Are The Days Of Our Lives [04:14]
13. One Vision [04:38]
14. Keep Yourself Alive [03:45]
15. Headlong [04:39]
16. Who Wants To Live Forever [05:15]
17. The Show Must Go On [04:33]

Exact Audio Copy V0.99 prebeta 5 from 4. May 2009

EAC extraction logfile from 28. June 2012, 8:53

Queen / Classic Queen

Used drive : ASUS DRW-24B3ST Adapter: 2 ID: 0

Read mode : Secure
Utilize accurate stream : Yes
Defeat audio cache : Yes
Make use of C2 pointers : No

Read offset correction : 6
Overread into Lead-In and Lead-Out : No
Fill up missing offset samples with silence : Yes
Delete leading and trailing silent blocks : No
Null samples used in CRC calculations : Yes
Used interface : Native Win32 interface for Win NT & 2000

Used output format : User Defined Encoder
Selected bitrate : 1024 kBit/s
Quality : High
Add ID3 tag : No
Command line compressor : C:\Program Files (x86)\EAC\WV\wavpack.exe
Additional command line options : -h -hh -m %s %d


TOC of the extracted CD

Track | Start | Length | Start sector | End sector
––––––––––––––––––––––––––––-
1 | 0:00.00 | 4:25.02 | 0 | 19876
2 | 4:25.02 | 5:55.73 | 19877 | 46574
3 | 10:21.00 | 4:03.37 | 46575 | 64836
4 | 14:24.37 | 3:40.63 | 64837 | 81399
5 | 18:05.25 | 2:15.10 | 81400 | 91534
6 | 20:20.35 | 4:28.62 | 91535 | 111696
7 | 24:49.22 | 5:48.40 | 111697 | 137836
8 | 30:37.62 | 4:23.25 | 137837 | 157586
9 | 35:01.12 | 4:01.73 | 157587 | 175734
10 | 39:03.10 | 3:45.60 | 175735 | 192669
11 | 42:48.70 | 4:24.67 | 192670 | 212536
12 | 47:13.62 | 4:14.40 | 212537 | 231626
13 | 51:28.27 | 4:38.10 | 231627 | 252486
14 | 56:06.37 | 3:45.73 | 252487 | 269434
15 | 59:52.35 | 4:39.10 | 269435 | 290369
16 | 64:31.45 | 5:15.02 | 290370 | 313996
17 | 69:46.47 | 4:34.00 | 313997 | 334546


Range status and errors

Selected range

Filename G:\QUEEN\• 20th Anniversary- Remastered with bonus tracks by Hollywood Records, 1991 •\1992- Classic Queen (US Hollywood Records • HR-61311-2)\Queen - Classic Queen.wav

Peak level 100.0 %
Range quality 99.9 %
Test CRC 57BE84AB
Copy CRC 57BE84AB
Copy OK

No errors occurred


AccurateRip summary

Track 1 accurately ripped (confidence 105) [F2A924FD]
Track 2 accurately ripped (confidence 109) [4B1EF24E]
Track 3 accurately ripped (confidence 106) [F240DD10]
Track 4 accurately ripped (confidence 105) [01B0BA96]
Track 5 accurately ripped (confidence 105) [D7121D8E]
Track 6 accurately ripped (confidence 105) [A6BD9A77]
Track 7 accurately ripped (confidence 104) [A0B2203C]
Track 8 accurately ripped (confidence 104) [12341D2C]
Track 9 accurately ripped (confidence 101) [16812701]
Track 10 accurately ripped (confidence 104) [BE877145]
Track 11 accurately ripped (confidence 103) [45D12009]
Track 12 accurately ripped (confidence 103) [754E4046]
Track 13 accurately ripped (confidence 104) [CF7BBB35]
Track 14 accurately ripped (confidence 103) [8D90AA63]
Track 15 accurately ripped (confidence 101) [E8E5F844]
Track 16 accurately ripped (confidence 103) [09B379D7]
Track 17 accurately ripped (confidence 93) [77F9AA47]

All tracks accurately ripped

End of status report

foobar2000 1.2.9 / Dynamic Range Meter 1.1.1
log date: 2017-01-09 16:19:50

––––––––––––––––––––––––––––––––––––––––
Analyzed: Queen / Classic Queen
––––––––––––––––––––––––––––––––––––––––

DR Peak RMS Duration Track
––––––––––––––––––––––––––––––––––––––––
DR14 0.00 dB -15.98 dB 4:25 01-A Kind Of Magic
DR10 -0.48 dB -15.05 dB 5:56 02-Bohemian Rhapsody
DR11 -1.69 dB -15.58 dB 4:03 03-Under Pressure
DR11 -1.13 dB -13.78 dB 3:41 04-Hammer To Fall
DR11 0.00 dB -14.17 dB 2:15 05-Stone Cold Crazy
DR14 0.00 dB -16.42 dB 4:29 06-One Year Of Love
DR12 -0.54 dB -14.69 dB 5:49 07-Radio Ga Ga
DR12 -2.78 dB -16.36 dB 4:23 08-I'm Going Slightly Mad
DR12 -0.29 dB -14.58 dB 4:02 09-I Want It All
DR9 -0.63 dB -12.29 dB 3:46 10-Tie Your Mother Down
DR10 -0.60 dB -13.15 dB 4:25 11-The Miracle
DR12 -1.62 dB -16.00 dB 4:15 12-These Are The Days Of Our Lives
DR12 -0.89 dB -14.79 dB 4:38 13-One Vision
DR11 -0.27 dB -13.98 dB 3:46 14-Keep Yourself Alive
DR13 0.00 dB -15.33 dB 4:39 15-Headlong
DR13 -1.05 dB -19.56 dB 5:15 16-Who Wants To Live Forever
DR11 -0.60 dB -14.74 dB 4:34 17-The Show Must Go On
––––––––––––––––––––––––––––––––––––––––

Number of tracks: 17
Official DR value: DR12

Samplerate: 44100 Hz
Channels: 2
Bits per sample: 16
Bitrate: 855 kbps
Codec: FLAC

[CUETools log; Date: 09.01.2017 16:19:35; Version: 2.1.4]
[CTDB TOCID: CIGiLdUIBBmrwo_2_iveOXIOmJY-] found.
Track | CTDB Status
1 | (303/314) Accurately ripped
2 | (307/314) Accurately ripped
3 | (311/314) Accurately ripped
4 | (308/314) Accurately ripped
5 | (308/314) Accurately ripped
6 | (307/314) Accurately ripped
7 | (309/314) Accurately ripped
8 | (308/314) Accurately ripped
9 | (305/314) Accurately ripped
10 | (303/314) Accurately ripped
11 | (305/314) Accurately ripped
12 | (308/314) Accurately ripped
13 | (304/314) Accurately ripped
14 | (304/314) Accurately ripped
15 | (300/314) Accurately ripped
16 | (296/314) Accurately ripped
17 | (282/314) Accurately ripped
[AccurateRip ID: 002d8b2e-023f88fd-fe116c11] found.
Track [ CRC | V2 ] Status
01 [f2a924fd|bbf8e60a] (106+083/479) Accurately ripped
02 [4b1ef24e|209864a7] (112+089/499) Accurately ripped
03 [f240dd10|cabb59e7] (109+091/501) Accurately ripped
04 [01b0ba96|604d3f0e] (107+090/494) Accurately ripped
05 [d7121d8e|93651f47] (106+090/499) Accurately ripped
06 [a6bd9a77|9cf40987] (106+089/496) Accurately ripped
07 [a0b2203c|d0a91f69] (106+090/498) Accurately ripped
08 [12341d2c|384873ac] (106+089/492) Accurately ripped
09 [16812701|7dc04a11] (103+090/490) Accurately ripped
10 [be877145|19dc1b92] (105+091/498) Accurately ripped
11 [45d12009|05b53a03] (105+088/485) Accurately ripped
12 [754e4046|14d3d829] (106+088/485) Accurately ripped
13 [cf7bbb35|1cd85a90] (106+090/486) Accurately ripped
14 [8d90aa63|e8bcae2e] (104+092/489) Accurately ripped
15 [e8e5f844|7e4121d9] (103+087/473) Accurately ripped
16 [09b379d7|4da16d02] (106+085/468) Accurately ripped
17 [77f9aa47|6dee7a49] (096+084/440) Accurately ripped
Offsetted by -70:
01 [c4110205] (027/479) Accurately ripped
02 [0299070a] (027/499) Accurately ripped
03 [6aa2a46e] (027/501) Accurately ripped
04 [fecadf40] (027/494) Accurately ripped
05 [dc9f7a52] (027/499) Accurately ripped
06 [88a845a9] (027/496) Accurately ripped
07 [f7165ebd] (027/498) Accurately ripped
08 [3f5c3a0b] (027/492) Accurately ripped
09 [e02babb7] (026/490) Accurately ripped
10 [21029639] (028/498) Accurately ripped
11 [217d2a8f] (027/485) Accurately ripped
12 [5e890092] (028/485) Accurately ripped
13 [ead2ec0d] (026/486) Accurately ripped
14 [0cb90851] (028/489) Accurately ripped
15 [718955fc] (028/473) Accurately ripped
16 [ff23b419] (027/468) Accurately ripped
17 [a7623440] (027/440) Accurately ripped
Offsetted by 93:
01 [8bfe3d81] (057/479) Accurately ripped
02 [c16a77ac] (056/499) Accurately ripped
03 [52513e3f] (058/501) Accurately ripped
04 [c3b6396b] (057/494) Accurately ripped
05 [d70230f0] (057/499) Accurately ripped
06 [1f2a6690] (057/496) Accurately ripped
07 [f572ddcd] (056/498) Accurately ripped
08 [dc99dd23] (055/492) Accurately ripped
09 [d3b834dc] (054/490) Accurately ripped
10 [8fcde4bf] (055/498) Accurately ripped
11 [58d2f4cc] (054/485) Accurately ripped
12 [eb544f6c] (055/485) Accurately ripped
13 [de5c01a1] (053/486) Accurately ripped
14 [e0f84ada] (055/489) Accurately ripped
15 [2c0ced20] (047/473) Accurately ripped
16 [97bba178] (044/468) Accurately ripped
17 [ede3d38d] (039/440) Accurately ripped
Offsetted by 140:
01 [4fd96aed] (070/479) Accurately ripped
02 [dc2ac8d6] (072/499) Accurately ripped
03 [017d4e54] (074/501) Accurately ripped
04 [077c7142] (072/494) Accurately ripped
05 [cbf76406] (075/499) Accurately ripped
06 [e2e84413] (073/496) Accurately ripped
07 [6f06b3f8] (074/498) Accurately ripped
08 [b64be350] (075/492) Accurately ripped
09 [832c1d95] (074/490) Accurately ripped
10 [f991275d] (074/498) Accurately ripped
11 [8e790afd] (072/485) Accurately ripped
12 [a2d8bfae] (071/485) Accurately ripped
13 [98cd5985] (072/486) Accurately ripped
14 [8f3fee87] (074/489) Accurately ripped
15 [d79f3cd4] (074/473) Accurately ripped
16 [1ed30553] (071/468) Accurately ripped
17 [bfe69944] (068/440) Accurately ripped
Offsetted by 165:
01 [9758e521] (017/479) Accurately ripped
02 [885a9cdc] (019/499) Accurately ripped
03 [d67ef4d7] (017/501) Accurately ripped
04 [51a9f673] (019/494) Accurately ripped
05 [a56979c0] (019/499) Accurately ripped
06 [5b5d9938] (019/496) Accurately ripped
07 [64567cf9] (020/498) Accurately ripped
08 [814458e7] (018/492) Accurately ripped
09 [4d6f3754] (019/490) Accurately ripped
10 [31d2e34f] (019/498) Accurately ripped
11 [2dbb9984] (019/485) Accurately ripped
12 [f41f31dc] (018/485) Accurately ripped
13 [8f09a381] (019/486) Accurately ripped
14 [741f3ab2] (018/489) Accurately ripped
15 [cb64e480] (017/473) Accurately ripped
16 [a298a760] (016/468) Accurately ripped
17 [1694b7eb] (013/440) Accurately ripped
Offsetted by 606:
01 [3ce427d5] (002/479) Accurately ripped
02 [ead980a2] (002/499) Accurately ripped
03 [e016f33a] (002/501) Accurately ripped
04 [971edc44] (002/494) Accurately ripped
05 [b5a217ba] (002/499) Accurately ripped
06 [4c172f7d] (002/496) Accurately ripped
07 [3abc83c2] (000/498) No match (V2 was not tested)
08 [9947e6e6] (002/492) Accurately ripped
09 [d6f02673] (002/490) Accurately ripped
10 [12317a81] (002/498) Accurately ripped
11 [45cc8a6b] (002/485) Accurately ripped
12 [e9f9dcca] (002/485) Accurately ripped
13 [493122fd] (002/486) Accurately ripped
14 [396db7bd] (000/489) No match (V2 was not tested)
15 [3b5fafac] (002/473) Accurately ripped
16 [65226b8d] (002/468) Accurately ripped
17 [9bbbd1ae] (002/440) Accurately ripped

Track Peak [ CRC32 ] [W/O NULL] [ LOG ]
– 100,0 [57BE84AB] [A2041452] CRC32
01 100,0 [8F94585B] [67416AEE]
02 94,6 [DAB1F447] [4D34F8C8]
03 82,2 [B71F2067] [333871C0]
04 87,7 [31D9D782] [0ABA8A73]
05 100,0 [83F27E85] [04EF1171]
06 100,0 [BB84F333] [23A89F7B]
07 94,0 [3C33CFA2] [E9A0B619]
08 72,6 [3127F3E9] [976D19A7]
09 96,6 [D898DF08] [D2092CDC]
10 92,9 [EA54301A] [566E2A74]
11 93,3 [9252E7DA] [047F5DC8]
12 82,9 [3D44E832] [5DC4674B]
13 90,2 [B7F24367] [61E621D8]
14 96,9 [59B23287] [F8208DD3]
15 100,0 [05BDA550] [9FBB2619]
16 88,5 [1DF600DF] [7B48A8C8]
17 93,3 [AD820AD2] [B7A3C9A4]

Queen - Classic Queen (1992)

All thanks go to original releaser …