Tags
Language
Tags
April 2024
Su Mo Tu We Th Fr Sa
31 1 2 3 4 5 6
7 8 9 10 11 12 13
14 15 16 17 18 19 20
21 22 23 24 25 26 27
28 29 30 1 2 3 4

Ron Carter - New York Slick (1980) {1996 OJC} **[RE-UP]**

Posted By: TestTickles
Ron Carter - New York Slick (1980) {1996 OJC} **[RE-UP]**

Ron Carter - New York Slick (1980) {1996 OJC}
EAC Rip | FLAC with CUE and log | scans | 225 mb
MP3 CBR 320kbps | RAR | 83 mb
Genre: jazz

New York Slick was an album released by jazz bassist Ron Carter in 1980. Carter is joined by Art Farmer, Hubert Laws, Billy Cobham, J.J. Johnson, and Kenny Barron, along with Ralph MacDonald and Jay Berliner in "Tierra Española". This was remastered and reissued in 1996 by Original jazz Classics (OJC).

Ron Carter - New York Slick (1980) {1996 OJC} **[RE-UP]**

1, NY Slick
2. A Slight Smile
3. Tierra Española
4. Aromatic
5. Alternate ROute

EAC extraction logfile from 24. December 2007, 12:01 for CD
Ron Carter / New York Slick

Used drive : HL-DT-STCDRW/DVD GCC4482 Adapter: 1 ID: 0
Read mode : Secure with NO C2, accurate stream, disable cache
Read offset correction : 6
Overread into Lead-In and Lead-Out : No

Used output format : C:\Eac\Codecs\flac.exe (User Defined Encoder)
320 kBit/s
Additional command line options : -8 -V -T "artist=%a" -T "title=%t" -T "album=%g" -T "date=%y" -T "tracknumber=%n" -T "genre=%m" -T "comment=EAC Flac 1.1.2 -8" %s

Other options :
Fill up missing offset samples with silence : Yes
Delete leading and trailing silent blocks : No
Installed external ASPI interface


Track 1
Filename C:\FLAC\Ron Carter - New York Slick (1980) {1996 OJC}\01 - NY Slick.wav

Pre-gap length 0:00:02.00

Peak level 99.9 %
Track quality 100.0 %
Test CRC 17A6526F
Copy CRC 17A6526F
Copy OK

Track 2
Filename C:\FLAC\Ron Carter - New York Slick (1980) {1996 OJC}\02 - A Slight Smile.wav

Pre-gap length 0:00:02.04

Peak level 63.9 %
Track quality 100.0 %
Test CRC 1779F8DC
Copy CRC 1779F8DC
Copy OK

Track 3
Filename C:\FLAC\Ron Carter - New York Slick (1980) {1996 OJC}\03 - Tierra Espanola.wav

Pre-gap length 0:00:02.64

Peak level 83.2 %
Track quality 100.0 %
Test CRC 64228DFB
Copy CRC 64228DFB
Copy OK

Track 4
Filename C:\FLAC\Ron Carter - New York Slick (1980) {1996 OJC}\04 - Aromatic.wav

Pre-gap length 0:00:02.53

Peak level 99.9 %
Track quality 100.0 %
Test CRC 5733456D
Copy CRC 5733456D
Copy OK

Track 5
Filename C:\FLAC\Ron Carter - New York Slick (1980) {1996 OJC}\05 - Alternate Route.wav

Pre-gap length 0:00:03.57

Peak level 99.9 %
Track quality 100.0 %
Test CRC ABF350A0
Copy CRC ABF350A0
Copy OK

No errors occured


End of status report


Ron Carter - New York Slick (1980) {1996 OJC} **[RE-UP]**


Thank you to the original uploader.