Subcategories
Tags
Language
Tags

Rebel Souljahz - Nothing To Hide (2008) {Go Aloha Entertainment}

Posted By: TestTickles
Rebel Souljahz - Nothing To Hide (2008) {Go Aloha Entertainment}

Rebel Souljahz - Nothing To Hide (2008) {Go Aloha Entertainment}
EAC Rip | FLAC with CUE and log | scans | 320 mb
MP3 CBR 320kbps | RAR | 144 mb
Genre: reggae, Jawaiian

Nothing To Hide is the 2008 album by Hawaiian reggae group Rebel Souljahz. This was released by Go Aloha Entertainment.

Rebel Souljahz - Nothing To Hide (2008) {Go Aloha Entertainment}

01. Darling Angel
02. The One
03. Nothing To Hide
04. Skankin'
05. Endlessly
06. Irie Beach Party
07. I'm Not The Man For You
08. Long Long Time
09. Corruption
10. Countryside Party
11. Steady Root Rockin'

Exact Audio Copy V1.6 from 23. October 2020

EAC extraction logfile from 13. June 2021, 21:10

Rebel Souljahz / Nothing To Hide

Used drive : HL-DT-STDVD+-RW GT32N Adapter: 1 ID: 0

Read mode : Burst

Read offset correction : 103
Overread into Lead-In and Lead-Out : No
Fill up missing offset samples with silence : Yes
Delete leading and trailing silent blocks : No
Null samples used in CRC calculations : Yes
Used interface : Native Win32 interface for Win NT & 2000
Gap handling : Not detected, thus appended to previous track

Used output format : Internal WAV Routines
Sample format : 44.100 Hz; 16 Bit; Stereo


TOC of the extracted CD

Track | Start | Length | Start sector | End sector
––––––––––––––––––––––––––––-
1 | 0:00.00 | 4:05.70 | 0 | 18444
2 | 4:05.70 | 3:57.12 | 18445 | 36231
3 | 8:03.07 | 3:56.72 | 36232 | 54003
4 | 12:00.04 | 3:52.57 | 54004 | 71460
5 | 15:52.61 | 4:16.20 | 71461 | 90680
6 | 20:09.06 | 4:46.28 | 90681 | 112158
7 | 24:55.34 | 3:42.51 | 112159 | 128859
8 | 28:38.10 | 3:51.43 | 128860 | 146227
9 | 32:29.53 | 2:59.53 | 146228 | 159705
10 | 35:29.31 | 2:46.70 | 159706 | 172225
11 | 38:16.26 | 4:15.32 | 172226 | 191382


Track 1

Filename C:\cuntfist\FLAC\Rebel Souljahz - Nothing To Hide (2008) [FLAC] {Go Aloha Entertainment}\01 - Darling Angel.wav

Peak level 98.8 %
Extraction speed 4.7 X
Test CRC B97A8A79
Copy CRC B97A8A79
Accurately ripped (confidence 2) [FD05E9B2] (AR v2)
Copy OK

Track 2

Filename C:\cuntfist\FLAC\Rebel Souljahz - Nothing To Hide (2008) [FLAC] {Go Aloha Entertainment}\02 - The One.wav

Timing problem 0:02:32

Peak level 98.8 %
Extraction speed 5.2 X
Test CRC 330E7861
Copy CRC 330E7861
Accurately ripped (confidence 2) [16C0B755] (AR v2)
Copy finished

Track 3

Filename C:\cuntfist\FLAC\Rebel Souljahz - Nothing To Hide (2008) [FLAC] {Go Aloha Entertainment}\03 - Nothing To Hide.wav

Peak level 98.8 %
Extraction speed 5.7 X
Test CRC 4517EAC5
Copy CRC 4517EAC5
Accurately ripped (confidence 2) [678DA43B] (AR v2)
Copy OK

Track 4

Filename C:\cuntfist\FLAC\Rebel Souljahz - Nothing To Hide (2008) [FLAC] {Go Aloha Entertainment}\04 - Skankin'.wav

Timing problem 0:03:36
Timing problem 0:03:51

Peak level 98.8 %
Extraction speed 6.1 X
Test CRC 20F473CE
Copy CRC 20F473CE
Accurately ripped (confidence 2) [1AD329EC] (AR v2)
Copy finished

Track 5

Filename C:\cuntfist\FLAC\Rebel Souljahz - Nothing To Hide (2008) [FLAC] {Go Aloha Entertainment}\05 - Endlessly.wav

Timing problem 0:02:30
Timing problem 0:02:42

Peak level 98.8 %
Extraction speed 6.5 X
Test CRC 1ABB1C02
Copy CRC 1ABB1C02
Accurately ripped (confidence 2) [39A2C978] (AR v2)
Copy finished

Track 6

Filename C:\cuntfist\FLAC\Rebel Souljahz - Nothing To Hide (2008) [FLAC] {Go Aloha Entertainment}\06 - Irie Beach Party.wav

Peak level 98.8 %
Extraction speed 7.0 X
Test CRC F99935E0
Copy CRC F99935E0
Accurately ripped (confidence 2) [1591C418] (AR v2)
Copy OK

Track 7

Filename C:\cuntfist\FLAC\Rebel Souljahz - Nothing To Hide (2008) [FLAC] {Go Aloha Entertainment}\07 - I'm Not The Man For You.wav

Peak level 96.8 %
Extraction speed 7.4 X
Test CRC B10434D5
Copy CRC B10434D5
Accurately ripped (confidence 2) [202997D1] (AR v2)
Copy OK

Track 8

Filename C:\cuntfist\FLAC\Rebel Souljahz - Nothing To Hide (2008) [FLAC] {Go Aloha Entertainment}\08 - Long Long Time.wav

Peak level 98.8 %
Extraction speed 7.8 X
Test CRC 0A60B66B
Copy CRC 0A60B66B
Accurately ripped (confidence 2) [AF5C1B67] (AR v2)
Copy OK

Track 9

Filename C:\cuntfist\FLAC\Rebel Souljahz - Nothing To Hide (2008) [FLAC] {Go Aloha Entertainment}\09 - Corruption.wav

Peak level 98.8 %
Extraction speed 7.5 X
Test CRC 271B03D3
Copy CRC 271B03D3
Accurately ripped (confidence 2) [1B77151E] (AR v2)
Copy OK

Track 10

Filename C:\cuntfist\FLAC\Rebel Souljahz - Nothing To Hide (2008) [FLAC] {Go Aloha Entertainment}\10 - Countryside Party.wav

Peak level 98.8 %
Extraction speed 8.3 X
Test CRC 185D419C
Copy CRC 185D419C
Accurately ripped (confidence 2) [70765657] (AR v2)
Copy OK

Track 11

Filename C:\cuntfist\FLAC\Rebel Souljahz - Nothing To Hide (2008) [FLAC] {Go Aloha Entertainment}\11 - Steady Root Rockin'.wav

Peak level 98.8 %
Extraction speed 8.6 X
Test CRC 14B5B619
Copy CRC 14B5B619
Accurately ripped (confidence 2) [633E137A] (AR v2)
Copy OK


All tracks accurately ripped

No errors occurred

End of status report

–– CUETools DB Plugin V2.1.6

[CTDB TOCID: Sf7NjkmIrNBwKPbkutiSngt6Oa0-] disk not present in database
Submit result: Sf7NjkmIrNBwKPbkutiSngt6Oa0- has been uploaded


==== Log checksum 7DAF05803BF028761F4F0D6E86C9FB7682765AA5BB1EFEC84AEAD1A9CCC1237E ====


Rebel Souljahz - Nothing To Hide (2008) {Go Aloha Entertainment}