Tags
Language
Tags

Reba McEntire - My Kind Of Country (1984) {MCA} **[RE-UP]**

Posted By: TestTickles
Reba McEntire - My Kind Of Country (1984) {MCA} **[RE-UP]**

Reba McEntire - My Kind Of Country (1984) {MCA}
EAC Rip | FLAC with CUE and log | scans | 175 mb
MP3 CBR 320kbps | RAR | 80 mb
Genre: country

My Kind Of Country is the 1984 album by country singer Reba McEntira. Released by MCA on 1 October, 1984, this featured the hit songs "Somebody Should Leave" and "How Blue". both of which went to #1. This was her eighth album, her second for the MCA label.

Reba McEntire - My Kind Of Country (1984) {MCA} **[RE-UP]**

1. How Blue (2:27)
2. That's What He Said (2:16)
3. I Want To Hear It From You (2:07)
4. It's Not Over (If I'm Not Over You) (2:53)
5. Somebody Should Leave (3:13)
6. Everything But My Heart (2:52)
7. Don't You Believe Him (2:05)
8. Before I Met You (2:16)
9. He's Only Everything (3:01)
10. You've Got Me (Right Where You Want Me) (2:27)

EAC extraction logfile from 7. October 2007, 17:45 for CD
Reba McEntire / My Kind Of Country

Used drive : LITE-ON DVDRW SOHW-1633S Adapter: 0 ID: 0
Read mode : Secure with NO C2, accurate stream, disable cache
Read offset correction : 12
Overread into Lead-In and Lead-Out : No

Used output format : Internal WAV Routines
44.100 Hz; 16 Bit; Stereo

Other options :
Fill up missing offset samples with silence : Yes
Delete leading and trailing silent blocks : No
Installed external ASPI interface


Track 1
Filename D:\FLAC\Reba McEntire - My Kind Of Country (1984) [FLAC] {MCA}\01 - How Blue.wav

Pre-gap length 0:00:02.00

Peak level 79.3 %
Track quality 100.0 %
Test CRC 7B892F47
Copy CRC 7B892F47
Copy OK

Track 2
Filename D:\FLAC\Reba McEntire - My Kind Of Country (1984) [FLAC] {MCA}\02 - That's What He Said.wav

Pre-gap length 0:00:01.29

Peak level 71.7 %
Track quality 100.0 %
Test CRC 9E90C17A
Copy CRC 9E90C17A
Copy OK

Track 3
Filename D:\FLAC\Reba McEntire - My Kind Of Country (1984) [FLAC] {MCA}\03 - I Want To Hear It From You.wav

Pre-gap length 0:00:01.64

Peak level 75.9 %
Track quality 100.0 %
Test CRC 54E34B2A
Copy CRC 54E34B2A
Copy OK

Track 4
Filename D:\FLAC\Reba McEntire - My Kind Of Country (1984) [FLAC] {MCA}\04 - It's Not Over (If I'm Not Over You).wav

Pre-gap length 0:00:01.30

Peak level 71.3 %
Track quality 100.0 %
Test CRC 1F06706E
Copy CRC 1F06706E
Copy OK

Track 5
Filename D:\FLAC\Reba McEntire - My Kind Of Country (1984) [FLAC] {MCA}\05 - Somebody Should Leave.wav

Pre-gap length 0:00:01.53

Peak level 83.9 %
Track quality 100.0 %
Test CRC 04DC1E2A
Copy CRC 04DC1E2A
Copy OK

Track 6
Filename D:\FLAC\Reba McEntire - My Kind Of Country (1984) [FLAC] {MCA}\06 - Everything But My Heart.wav

Pre-gap length 0:00:01.89

Peak level 80.3 %
Track quality 100.0 %
Test CRC 421ED709
Copy CRC 421ED709
Copy OK

Track 7
Filename D:\FLAC\Reba McEntire - My Kind Of Country (1984) [FLAC] {MCA}\07 - Don't You Believe Him.wav

Pre-gap length 0:00:01.46

Peak level 61.7 %
Track quality 99.9 %
Test CRC 22DDB52B
Copy CRC 22DDB52B
Copy OK

Track 8
Filename D:\FLAC\Reba McEntire - My Kind Of Country (1984) [FLAC] {MCA}\08 - Before I Met You.wav

Pre-gap length 0:00:02.37

Peak level 70.1 %
Track quality 100.0 %
Test CRC 26826D01
Copy CRC 26826D01
Copy OK

Track 9
Filename D:\FLAC\Reba McEntire - My Kind Of Country (1984) [FLAC] {MCA}\09 - He's Only Everything.wav

Pre-gap length 0:00:01.46

Peak level 67.0 %
Track quality 100.0 %
Test CRC 79BA45DD
Copy CRC 79BA45DD
Copy OK

Track 10
Filename D:\FLAC\Reba McEntire - My Kind Of Country (1984) [FLAC] {MCA}\10 - You've Got Me (Right Where You Want Me).wav

Pre-gap length 0:00:01.70

Peak level 97.0 %
Track quality 100.0 %
Test CRC 323370A4
Copy CRC 323370A4
Copy OK

No errors occured


End of status report


Reba McEntire - My Kind Of Country (1984) {MCA} **[RE-UP]**