Tags
Language
Tags
June 2024
Su Mo Tu We Th Fr Sa
26 27 28 29 30 31 1
2 3 4 5 6 7 8
9 10 11 12 13 14 15
16 17 18 19 20 21 22
23 24 25 26 27 28 29
30 1 2 3 4 5 6

Redman/Method Man - How High (US CD5) (1995) {Def Jam} **[RE-UP]**

Posted By: TestTickles
Redman/Method Man - How High (US CD5) (1995) {Def Jam} **[RE-UP]**

Redman/Method Man - How High (US CD5) (1995) {Def Jam}
EAC Rip | FLAC with CUE and log | scans | 118 mb
MP3 CBR 320kbps | RAR | 47 mb
Genre: hip-hop, rap

"How High" is the 1995 single by Reggie Noble and Clifford Smith, better known under the pseudonyms Redman and Method Man. The song was released in support of the soundtrack to the concert film The Show and features the album version plus the hit/single mix.

Redman/Method Man - How High (US CD5) (1995) {Def Jam} **[RE-UP]**

1. How High (LP Version)
2. How High (Remix Radio Edit)
3. How High (Remix)
4. How High (Instrumental)
5. How High (A Cappella)

Exact Audio Copy V1.1 from 23. June 2015

EAC extraction logfile from 19. February 2017, 12:01

Redman/Method Man / How High (US CD5)

Used drive : TEAC DVD-ROM DV-28SW Adapter: 1 ID: 0

Read mode : Secure
Utilize accurate stream : Yes
Defeat audio cache : Yes
Make use of C2 pointers : No

Read offset correction : 6
Overread into Lead-In and Lead-Out : No
Fill up missing offset samples with silence : Yes
Delete leading and trailing silent blocks : No
Null samples used in CRC calculations : Yes
Used interface : Native Win32 interface for Win NT & 2000
Gap handling : Appended to previous track

Used output format : Internal WAV Routines
Sample format : 44.100 Hz; 16 Bit; Stereo


TOC of the extracted CD

Track | Start | Length | Start sector | End sector
––––––––––––––––––––––––––––-
1 | 0:00.32 | 4:43.73 | 32 | 21329
2 | 4:44.30 | 4:02.52 | 21330 | 39531
3 | 8:47.07 | 4:02.53 | 39532 | 57734
4 | 12:49.60 | 3:52.27 | 57735 | 75161
5 | 16:42.12 | 3:59.70 | 75162 | 93156


Track 1

Filename C:\My Documents\My FLAC\Redman, Method Man - How High (US CD5) (1995) [FLAC] {Def Jam}\01 - How High (LP Version).wav

Pre-gap length 0:00:02.32

Peak level 97.7 %
Extraction speed 1.2 X
Track quality 100.0 %
Test CRC 8C90D950
Copy CRC 8C90D950
Cannot be verified as accurate (confidence 3) [F34B7A39], AccurateRip returned [6E4611F6] (AR v2)
Copy OK

Track 2

Filename C:\My Documents\My FLAC\Redman, Method Man - How High (US CD5) (1995) [FLAC] {Def Jam}\02 - How High (Remix Radio Edit).wav

Pre-gap length 0:00:02.43

Peak level 97.7 %
Extraction speed 1.2 X
Track quality 99.9 %
Test CRC CA234DF8
Copy CRC CA234DF8
Cannot be verified as accurate (confidence 3) [37F270A5], AccurateRip returned [15BD43FD] (AR v2)
Copy OK

Track 3

Filename C:\My Documents\My FLAC\Redman, Method Man - How High (US CD5) (1995) [FLAC] {Def Jam}\03 - How High (Remix).wav

Pre-gap length 0:00:02.42

Peak level 97.7 %
Extraction speed 1.3 X
Track quality 99.9 %
Test CRC 5AE2DA21
Copy CRC 5AE2DA21
Accurately ripped (confidence 2) [3E29F6C1] (AR v2)
Copy OK

Track 4

Filename C:\My Documents\My FLAC\Redman, Method Man - How High (US CD5) (1995) [FLAC] {Def Jam}\04 - How High (Instrumental).wav

Pre-gap length 0:00:02.43

Peak level 97.7 %
Extraction speed 1.5 X
Track quality 100.0 %
Test CRC 236ADDD1
Copy CRC 236ADDD1
Cannot be verified as accurate (confidence 3) [53AD32DD], AccurateRip returned [9047DAAD] (AR v2)
Copy OK

Track 5

Filename C:\My Documents\My FLAC\Redman, Method Man - How High (US CD5) (1995) [FLAC] {Def Jam}\05 - How High (A Cappella).wav

Pre-gap length 0:00:02.42

Peak level 97.7 %
Extraction speed 1.6 X
Track quality 100.0 %
Test CRC 12846534
Copy CRC 12846534
Cannot be verified as accurate (confidence 3) [F69F62E4], AccurateRip returned [4F49AA42] (AR v2)
Copy OK


1 track(s) accurately ripped
4 track(s) could not be verified as accurate

Some tracks could not be verified as accurate

No errors occurred

End of status report

–– CUETools DB Plugin V2.1.6

[CTDB TOCID: uCw8XvXBkJtif0RMZFpIiJ7xDzQ-] found
Submit result: uCw8XvXBkJtif0RMZFpIiJ7xDzQ- has been confirmed
Track | CTDB Status
1 | (5/5) Accurately ripped
2 | (5/5) Accurately ripped
3 | (5/5) Accurately ripped
4 | (5/5) Accurately ripped
5 | (5/5) Accurately ripped


==== Log checksum A055ECD2E1F958FF576F1171952FDF3B28E05EB8F8769FF722BA0FEE76513F51 ====


Redman/Method Man - How High (US CD5) (1995) {Def Jam} **[RE-UP]**