Tags
Language
Tags

Raimund Nolte, Batzdorfer Hofkapelle - Handel: The complete Italian cantatas for bass (2012)

Posted By: ArlegZ
Raimund Nolte, Batzdorfer Hofkapelle - Handel: The complete Italian cantatas for bass (2012)

Raimund Nolte, Batzdorfer Hofkapelle - Handel: The complete Italian cantatas for bass (2012)
EAC | FLAC | Image (Cue & Log) ~ 344 Mb | Total time: 65:33 | Scans included
Classical | Label: Accent | # ACC 24249 | Recorded: 2011

For this release, Raimund Nolte and the Batzdorfer Hofkapelle have tackled a repertoire which makes extensive demands on the singer. In the two cantatas Nell’africane selve and Cuopre tal volta il cielo there are breathtaking leaps and bizarre changes of register.
“The singer has an exemplary vocal balance, warmth of flow and dramatic differentiation at his command.”

Performer:
Raimund Nolte, bass-baritone
Batzdorfer Hofkapelle

Track List:
Cuopre tal volta il cielo, HWV 98
01. Accompagnato: Cuopre Talvolta il cielo
02. Aria: Tuona, balena
03. Recitative: Cosi fiera procella
04. Aria: Per pieta de' miei martiri
Dalla guerra amorosa, HWV 102a
05. Recitative: Dalla guerra amorosa
06. Aria: Non v'alletti un occhio nero
07. Recitative: Fuggite, si fuggite!
08. Aria: La bellezza e com'un fiore
09. Finale: Fugette … a chi servo d'amor
Quartet in G minor, HWV 404
10. I. Andante
11. II. Allegro
12. III. Adagio
13. IV. Allegro
14. Da quel giorno fatale, HWV 99, "Il delirio amoroso": Sonata
Nell`Africane selve, HWV 136a
15. Recitativo: Nell' Africane selve
16. Aria: Langue, trema
17. Recitativo: Nice, la fra confini di valli incolte
18. Aria: Chiedo Amore, altro non brama
Trio Sonata in G minor, HWV 390a
19. I. Larghetto
20. II. Allegro
21. III. Adagio
22. IV. Allegro
Spande ancor a mio dispetto, HWV 165
23. Aria: Spande ancor a mio dispetto
24. Accompanied Recitative: Oh! Che de fiere pene
25. Aria: Da balza in balza


Exact Audio Copy V1.5 from 20. February 2020

EAC extraction logfile from 6. August 2021, 22:29

Raimund Nolte, Batzdorfer Hofkapelle / Handel - The complete Italian cantatas for bass

Used drive : ASUS SDRW-08U7M-U Adapter: 1 ID: 0

Read mode : Secure
Utilize accurate stream : Yes
Defeat audio cache : Yes
Make use of C2 pointers : No

Read offset correction : 6
Overread into Lead-In and Lead-Out : No
Fill up missing offset samples with silence : Yes
Delete leading and trailing silent blocks : No
Null samples used in CRC calculations : Yes
Used interface : Native Win32 interface for Win NT & 2000

Used output format : User Defined Encoder
Selected bitrate : 128 kBit/s
Quality : High
Add ID3 tag : No
Command line compressor : C:\Program Files (x86)\Exact Audio Copy\Flac\flac.exe
Additional command line options : -V -8 -T "Date=%year%" -T "Genre=%genre%" %source%


TOC of the extracted CD

Track | Start | Length | Start sector | End sector
––––––––––––––––––––––––––––-
1 | 0:00.01 | 1:35.57 | 1 | 7182
2 | 1:35.58 | 3:10.70 | 7183 | 21502
3 | 4:46.53 | 1:07.63 | 21503 | 26590
4 | 5:54.41 | 5:02.49 | 26591 | 49289
5 | 10:57.15 | 0:25.60 | 49290 | 51224
6 | 11:23.00 | 3:31.54 | 51225 | 67103
7 | 14:54.54 | 0:46.03 | 67104 | 70556
8 | 15:40.57 | 2:34.23 | 70557 | 82129
9 | 18:15.05 | 1:18.26 | 82130 | 88005
10 | 19:33.31 | 2:48.46 | 88006 | 100651
11 | 22:22.02 | 1:51.53 | 100652 | 109029
12 | 24:13.55 | 1:05.16 | 109030 | 113920
13 | 25:18.71 | 2:38.53 | 113921 | 125823
14 | 27:57.49 | 4:50.62 | 125824 | 147635
15 | 32:48.36 | 1:18.39 | 147636 | 153524
16 | 34:07.00 | 6:32.20 | 153525 | 182944
17 | 40:39.20 | 1:17.62 | 182945 | 188781
18 | 41:57.07 | 3:12.14 | 188782 | 203195
19 | 45:09.21 | 2:45.22 | 203196 | 215592
20 | 47:54.43 | 2:49.08 | 215593 | 228275
21 | 50:43.51 | 2:07.68 | 228276 | 237868
22 | 52:51.44 | 3:25.52 | 237869 | 253295
23 | 56:17.21 | 4:39.10 | 253296 | 274230
24 | 60:56.31 | 1:22.62 | 274231 | 280442
25 | 62:19.18 | 3:11.72 | 280443 | 294839


Range status and errors

Selected range

Filename C:\temp\Handel - The complete Italian cantatas for bass - Nolte, Batzdorfer Hofkapelle - 2012\Handel - The complete Italian cantatas for bass.wav

Peak level 95.7 %
Extraction speed 2.2 X
Range quality 99.9 %
Test CRC 89F2990C
Copy CRC 89F2990C
Copy OK

No errors occurred


AccurateRip summary

Track 1 accurately ripped (confidence 2) [CEE7B48C] (AR v2)
Track 2 accurately ripped (confidence 2) [CDF77B52] (AR v2)
Track 3 accurately ripped (confidence 2) [7F2EEA61] (AR v2)
Track 4 accurately ripped (confidence 2) [871F197E] (AR v2)
Track 5 accurately ripped (confidence 2) [4F1BB135] (AR v2)
Track 6 accurately ripped (confidence 2) [FC6EA31E] (AR v2)
Track 7 accurately ripped (confidence 2) [E0A4C395] (AR v2)
Track 8 accurately ripped (confidence 2) [DBD60020] (AR v2)
Track 9 accurately ripped (confidence 2) [428C1421] (AR v2)
Track 10 accurately ripped (confidence 2) [E4FCFB7F] (AR v2)
Track 11 accurately ripped (confidence 2) [7EE9E077] (AR v2)
Track 12 accurately ripped (confidence 2) [41A443BB] (AR v2)
Track 13 accurately ripped (confidence 2) [58FB3ED0] (AR v2)
Track 14 accurately ripped (confidence 2) [1A1EF13D] (AR v2)
Track 15 accurately ripped (confidence 2) [C08A597F] (AR v2)
Track 16 accurately ripped (confidence 2) [AA6745B1] (AR v2)
Track 17 accurately ripped (confidence 2) [3C366C0E] (AR v2)
Track 18 accurately ripped (confidence 2) [2F358704] (AR v2)
Track 19 accurately ripped (confidence 2) [F26F2447] (AR v2)
Track 20 accurately ripped (confidence 2) [9C8A3C8E] (AR v2)
Track 21 accurately ripped (confidence 2) [5A554E3B] (AR v2)
Track 22 accurately ripped (confidence 2) [49B08490] (AR v2)
Track 23 accurately ripped (confidence 2) [E1C56511] (AR v2)
Track 24 accurately ripped (confidence 2) [7B96BE41] (AR v2)
Track 25 accurately ripped (confidence 2) [29A1B7F2] (AR v2)

All tracks accurately ripped

End of status report

==== Log checksum F62D3F5C6C5F139D6AA94F2A08B8D090AC8AE1473E000E4E1B4FA6100380B916 ====


Thanks to the original releaser