Subcategories

Ray Charles - Berlin, 1962 (1996)

Posted By: gribovar
Ray Charles - Berlin, 1962 (1996)

Ray Charles - Berlin, 1962 (1996)
EAC Rip | APE (image+.cue+log) - 360 MB | MP3 CBR 320 kbps (LAME 3.93) - 160 MB | Covers (13 MB) included
Genre: R&B, Soul | RAR 3% Rec. | Label: Pablo Records (PACD-5301-2)

An hour of previously unreleased live music from Ray Charles in his prime. During this era he was touring with a big band including saxophonists David "Fathead" Newman and Hank Crawford, as well as background singers the Raelettes. The fidelity is excellent, and the set includes Charles standards like "One Mint Julep," "I Got a Woman," "Georgia on My Mind," "Hallelujah I Love Her So," "I Believe to My Soul," "Hit the Road, Jack," "Unchain My Heart," and "What'd I Say." Yet most fans will probably much prefer the more compact, small-combo arrangements of the studio versions. The horn charts offer an interesting contrast, but these live performances may be a little too stagey for optimum results, with some detours from hard R&B into popular standards.
Tracklist:
01. Band Intro
02. Strike up the Band
03. One Mint Julep
04. I Got a Woman
05. Georgia on My Mind
06. Margie
07. Danger Zone
08. Hallelujah. I Love Her So
09. Come Rain or Come Shine
10. Hide nor Hair
11. Alexander's Ragtime Band
12. I Believe to My Soul
13. Hit the Road Jack
14. Night Time Is the Right Time
15. Bye Bye Love
16. Unchain My Heart
17. What'd I Say

Total time: 01:02:08

Exact Audio Copy V0.99 prebeta 4 from 23. January 2008

EAC extraction logfile from 28. April 2009, 20:53

Ray Charles / Ray Charles - Berlin, 1962

Used drive : HL-DT-STRW/DVD GCC-4242N Adapter: 1 ID: 0

Read mode : Secure
Utilize accurate stream : Yes
Defeat audio cache : Yes
Make use of C2 pointers : No

Read offset correction : 102
Overread into Lead-In and Lead-Out : No
Fill up missing offset samples with silence : Yes
Delete leading and trailing silent blocks : No
Null samples used in CRC calculations : Yes
Used interface : Native Win32 interface for Win NT & 2000

Used output format : Internal WAV Routines
Sample format : 44.100 Hz; 16 Bit; Stereo


TOC of the extracted CD

Track | Start | Length | Start sector | End sector
––––––––––––––––––––––––––––-
1 | 0:00.00 | 0:58.55 | 0 | 4404
2 | 0:58.55 | 2:23.00 | 4405 | 15129
3 | 3:21.55 | 3:07.20 | 15130 | 29174
4 | 6:29.00 | 6:22.50 | 29175 | 57874
5 | 12:51.50 | 6:18.17 | 57875 | 86241
6 | 19:09.67 | 2:29.45 | 86242 | 97461
7 | 21:39.37 | 3:50.08 | 97462 | 114719
8 | 25:29.45 | 3:09.47 | 114720 | 128941
9 | 28:39.17 | 7:42.28 | 128942 | 163619
10 | 36:21.45 | 3:14.45 | 163620 | 178214
11 | 39:36.15 | 2:28.05 | 178215 | 189319
12 | 42:04.20 | 3:56.55 | 189320 | 207074
13 | 46:01.00 | 2:33.72 | 207075 | 218621
14 | 48:34.72 | 4:05.60 | 218622 | 237056
15 | 52:40.57 | 2:16.15 | 237057 | 247271
16 | 54:56.72 | 3:05.38 | 247272 | 261184
17 | 58:02.35 | 4:05.65 | 261185 | 279624


Range status and errors

Selected range

Filename C:\_\EAC_Out\Out\Ray Charles - Ray Charles - Berlin, 1962\Ray Charles - Ray Charles - Berlin, 1962.wav

Peak level 100.0 %
Range quality 100.0 %
Copy CRC 063758AB
Copy OK

No errors occurred


AccurateRip summary

Track 1 accurately ripped (confidence 1) [0500EAEE]
Track 2 accurately ripped (confidence 1) [EA9CFE78]
Track 3 accurately ripped (confidence 1) [F6DDCDAD]
Track 4 accurately ripped (confidence 1) [14C893C4]
Track 5 accurately ripped (confidence 1) [571CDB40]
Track 6 accurately ripped (confidence 1) [DC5E1D10]
Track 7 accurately ripped (confidence 1) [70C8AB91]
Track 8 accurately ripped (confidence 1) [F6B82B04]
Track 9 accurately ripped (confidence 1) [18E5FDDA]
Track 10 accurately ripped (confidence 1) [64864908]
Track 11 accurately ripped (confidence 1) [70D75F99]
Track 12 accurately ripped (confidence 1) [5BD9A8F8]
Track 13 accurately ripped (confidence 1) [77F0E474]
Track 14 accurately ripped (confidence 1) [33A96086]
Track 15 accurately ripped (confidence 1) [199B5306]
Track 16 accurately ripped (confidence 1) [BA7342EC]
Track 17 accurately ripped (confidence 1) [C25AF14D]

All tracks accurately ripped

End of status report

[CUETools log; Date: 17.03.2020 20:34:58; Version: 2.1.4]
[CTDB TOCID: nZTBlOwRycZ3YRT0n0jRrJPMhqQ-] found.
Track | CTDB Status
1 | (21/21) Accurately ripped
2 | (21/21) Accurately ripped
3 | (21/21) Accurately ripped
4 | (21/21) Accurately ripped
5 | (21/21) Accurately ripped
6 | (21/21) Accurately ripped
7 | (20/21) Accurately ripped
8 | (21/21) Accurately ripped
9 | (21/21) Accurately ripped
10 | (21/21) Accurately ripped
11 | (21/21) Accurately ripped
12 | (21/21) Accurately ripped
13 | (20/21) Accurately ripped
14 | (19/21) Accurately ripped
15 | (20/21) Accurately ripped
16 | (20/21) Accurately ripped
17 | (21/21) Accurately ripped
[AccurateRip ID: 002663e6-01ed8b3a-d70e9011] found.
Track [ CRC | V2 ] Status
01 [0500eaee|f4e83fa1] (02+05/22) Accurately ripped
02 [ea9cfe78|32fb892e] (02+05/22) Accurately ripped
03 [f6ddcdad|77c4215c] (02+05/22) Accurately ripped
04 [14c893c4|8fc3abcf] (02+05/22) Accurately ripped
05 [571cdb40|592bec45] (02+05/22) Accurately ripped
06 [dc5e1d10|5996bf0d] (02+05/22) Accurately ripped
07 [70c8ab91|334fa532] (02+05/22) Accurately ripped
08 [f6b82b04|b44a23ce] (02+05/22) Accurately ripped
09 [18e5fdda|3abf7bc8] (02+05/22) Accurately ripped
10 [64864908|81756f4a] (02+05/22) Accurately ripped
11 [70d75f99|27f005be] (02+05/22) Accurately ripped
12 [5bd9a8f8|01f1adcb] (02+05/22) Accurately ripped
13 [77f0e474|59dfcfad] (02+05/22) Accurately ripped
14 [33a96086|d0aeab4c] (02+05/21) Accurately ripped
15 [199b5306|e764d489] (02+05/20) Accurately ripped
16 [ba7342ec|b8e081d2] (02+05/20) Accurately ripped
17 [c25af14d|0d90f3b2] (02+05/21) Accurately ripped
Offsetted by -120:
01 [8cc53a54] (02/22) Accurately ripped
02 [6541b4cb] (02/22) Accurately ripped
03 [a8fda112] (02/22) Accurately ripped
04 [89c45ead] (02/22) Accurately ripped
05 [58080462] (02/22) Accurately ripped
06 [94697253] (02/22) Accurately ripped
07 [76930cf7] (02/22) Accurately ripped
08 [dd356fcb] (02/22) Accurately ripped
09 [37dc5227] (02/22) Accurately ripped
10 [0814aa91] (02/22) Accurately ripped
11 [fe7e1e2b] (02/22) Accurately ripped
12 [a09c87f2] (02/22) Accurately ripped
13 [308dac07] (02/22) Accurately ripped
14 [95fe8c26] (02/21) Accurately ripped
15 [6d1e6eaa] (02/20) Accurately ripped
16 [c9ecd9f1] (02/20) Accurately ripped
17 [645e79f0] (02/21) Accurately ripped
Offsetted by 188:
01 [6b5b9eb1] (00/22) No match (V2 was not tested)
02 [4355d44e] (00/22) No match (V2 was not tested)
03 [db0073f6] (00/22) No match (V2 was not tested)
04 [d2ebfccb] (00/22) No match (V2 was not tested)
05 [7a53e8ac] (00/22) No match (V2 was not tested)
06 [96cf5f09] (00/22) No match (V2 was not tested)
07 [771710d5] (00/22) No match (V2 was not tested)
08 [aec31d2b] (00/22) No match (V2 was not tested)
09 [ee02cf08] (00/22) No match (V2 was not tested)
10 [3eaf83cc] (00/22) No match (V2 was not tested)
11 [ca2ff74b] (00/22) No match (V2 was not tested)
12 [dc2e8006] (00/22) No match (V2 was not tested)
13 [f9440124] (00/22) No match (V2 was not tested)
14 [31ae5a65] (00/21) No match (V2 was not tested)
15 [c1cc06a9] (00/20) No match (V2 was not tested)
16 [d91e5ae8] (00/20) No match (V2 was not tested)
17 [639c1697] (00/21) No match (V2 was not tested)

Track Peak [ CRC32 ] [W/O NULL] [ LOG ]
– 100,0 [063758AB] [BB6299DB] CRC32
01 100,0 [BE3CF54B] [B9A32D31]
02 100,0 [B07FC70A] [446211EE]
03 100,0 [0CD0BD2C] [1E384FC4]
04 100,0 [28DF809C] [238CA033]
05 100,0 [A5C15A59] [7EAE4A28]
06 100,0 [40FCD47C] [3F8E7E58]
07 86,8 [AF18E7BD] [E8EAEB5B]
08 93,7 [69B15547] [8B5D24A8]
09 100,0 [9EE44BFE] [206A1283]
10 99,4 [A7C00717] [23EDA7F5]
11 100,0 [DF103F81] [96CD3505]
12 97,5 [F0944E14] [61FCBA5C]
13 99,9 [D68766DB] [2248EA7F]
14 93,5 [9D0D3AA9] [D94E23EC]
15 100,0 [3DD3A746] [055520A9]
16 99,7 [3B3C1D2C] [4990690F]
17 100,0 [6D4C5785] [F384B9F4]

Thanks to barin99

LOSSLESS:
Ray Charles - The Genius of Ray Charles (1959) [MFSL, 2012]
Ray Charles - The Genius Sings The Blues (1961) [MFSL, 2010]
Ray Charles - My World (1993)