Tags
Language
Tags

Renaissance - 5 Studio Albums (1973-1978)

Posted By: gribovar
Renaissance - 5 Studio Albums (1973-1978)

Renaissance - 5 Studio Albums (1973-1978)
EAC Rip | FLAC, WavPack (tracks/image+.cue+log) - 1,32 GB | MP3 CBR 320 kbps (LAME 3.93) - 500 MB | Covers - 247 MB
Genre: Progressive Rock | RAR 3% Rec. | Label: Repertoire Records, Sire Records

Classical rock ensemble formed as an outlet for a pair of ex-Yardbirds, but later driven by Annie Haslam's three-octave voice and John Tout's piano.
The history of Renaissance is essentially the history of two separate groups, rather similar to the two phases of the Moody Blues or the Drifters. The original group was founded in 1969 by ex-Yardbirds members Keith Relf and Jim McCarty as a sort of progressive folk-rock band, who recorded two albums (of which only the first, self-titled LP came out in America, on Elektra Records) but never quite made it, despite some success on England's campus circuit.
The band went through several membership changes, with Relf and his sister Jane (who later fronted the very Renaissance-like Illusion) exiting and McCarty all but gone after 1971. The new lineup formed around the core of bassist Jon Camp, keyboard player John Tout, and Terry Sullivan on drums, with Annie Haslam, an aspiring singer with operatic training and a three-octave range.
Their first album in this incarnation, Prologue, released in 1972, was considerably more ambitious than the original band's work, with extended instrumental passages and soaring vocals by Haslam. Their breakthrough came with their next record, Ashes Are Burning, issued in 1973, which introduced guitarist Michael Dunford to the lineup and featured some searing electric licks by guest axeman Andy Powell. Their next record, Turn of the Cards, released by Sire Records, had a much more ornate songwriting style and was awash in lyrics that alternated between the topical and the mystical.
The group's ambitions, by now, were growing faster than its audience, which was concentrated on America's East Coast, especially in New York and Philadelphia - Scheherazade (1975) was built around a 20-minute extended suite for rock group and orchestra that dazzled the fans but made no new converts. A live album recorded at a New York concert date reprised their earlier material, including the "Scheherazade" suite, but covered little new ground and showed the group in a somewhat lethargic manner. The band's next two albums, Novella and A Song for All Seasons, failed to find new listeners, and as the 1970s closed out, the group was running headlong into the punk and new wave booms that made them seem increasingly anachronistic and doomed to cult status.

Renaissance - 5 Studio Albums (1973-1978)

Renaissance - Ashes Are Burning (1973) [Reissue 2006]
EAC Rip | FLAC (tracks+.cue+log) - 281 MB | MP3 CBR 320 kbps (LAME 3.93) - 96 MB | Covers - 70 MB
Genre: Progressive Rock | RAR 3% Rec. | Label: Repertoire Records (REP 5078)

Tracklist:
01. Can You Understand
02. Let it Grow
03. On the Frontier
04. Carpet of the Sun
05. At the Harbour
06. Ashes are Burning

Total time: 40:37

Exact Audio Copy V1.0 beta 3 from 29. August 2011

EAC extraction logfile from 31. January 2013, 23:12

Renaissance / Ashes Are Burning

Used drive : _NEC DVD_RW ND-3540A Adapter: 1 ID: 1

Read mode : Secure
Utilize accurate stream : Yes
Defeat audio cache : Yes
Make use of C2 pointers : No

Read offset correction : 48
Overread into Lead-In and Lead-Out : No
Fill up missing offset samples with silence : Yes
Delete leading and trailing silent blocks : No
Null samples used in CRC calculations : Yes
Used interface : Native Win32 interface for Win NT & 2000
Gap handling : Appended to previous track

Used output format : User Defined Encoder
Selected bitrate : 1024 kBit/s
Quality : High
Add ID3 tag : Yes
Command line compressor : C:\Program Files (x86)\Exact Audio Copy\FLAC\FLAC.EXE
Additional command line options : -6 -V -T "ARTIST=%artist%" -T "TITLE=%title%" -T "ALBUM=%albumtitle%" -T "DATE=%year%" -T "TRACKNUMBER=%tracknr%" -T "GENRE=%genre%" -T "COMMENT=%comment%" %hascover%–picture="%coverfile%"%hascover% %source% -o %dest%


TOC of the extracted CD

Track | Start | Length | Start sector | End sector
––––––––––––––––––––––––––––-
1 | 0:00.00 | 9:51.69 | 0 | 44393
2 | 9:51.69 | 4:14.50 | 44394 | 63493
3 | 14:06.44 | 4:55.64 | 63494 | 85682
4 | 19:02.33 | 3:31.43 | 85683 | 101550
5 | 22:34.01 | 6:48.23 | 101551 | 132173
6 | 29:22.24 | 11:20.66 | 132174 | 183239


Track 1

Filename D:\Music\olaf_alien\Renaissance - Ashes Are Burning (1973, Sovereign - 2006, Repertoire)\01 - Can You Understand.wav

Pre-gap length 0:00:02.00

Peak level 98.8 %
Extraction speed 3.4 X
Track quality 99.9 %
Test CRC 047022AA
Copy CRC 047022AA
Accurately ripped (confidence 5) [8626E1B7] (AR v2)
Copy OK

Track 2

Filename D:\Music\olaf_alien\Renaissance - Ashes Are Burning (1973, Sovereign - 2006, Repertoire)\02 - Let It Grow.wav

Pre-gap length 0:00:01.59

Peak level 98.4 %
Extraction speed 4.1 X
Track quality 100.0 %
Test CRC 428FAC87
Copy CRC 428FAC87
Accurately ripped (confidence 5) [0EBC750F] (AR v2)
Copy OK

Track 3

Filename D:\Music\olaf_alien\Renaissance - Ashes Are Burning (1973, Sovereign - 2006, Repertoire)\03 - On The Frontier.wav

Pre-gap length 0:00:01.59

Peak level 98.6 %
Extraction speed 4.2 X
Track quality 100.0 %
Test CRC F421D4FA
Copy CRC F421D4FA
Accurately ripped (confidence 5) [DC461220] (AR v2)
Copy OK

Track 4

Filename D:\Music\olaf_alien\Renaissance - Ashes Are Burning (1973, Sovereign - 2006, Repertoire)\04 - Carpet Of The Sun.wav

Pre-gap length 0:00:01.59

Peak level 98.8 %
Extraction speed 4.1 X
Track quality 100.0 %
Test CRC 534FDADD
Copy CRC 534FDADD
Accurately ripped (confidence 5) [8CEA7FA4] (AR v2)
Copy OK

Track 5

Filename D:\Music\olaf_alien\Renaissance - Ashes Are Burning (1973, Sovereign - 2006, Repertoire)\05 - At The Harbour.wav

Peak level 98.8 %
Extraction speed 4.4 X
Track quality 100.0 %
Test CRC 5EAC3E89
Copy CRC 5EAC3E89
Accurately ripped (confidence 5) [9EB81A21] (AR v2)
Copy OK

Track 6

Filename D:\Music\olaf_alien\Renaissance - Ashes Are Burning (1973, Sovereign - 2006, Repertoire)\06 - Ashes Are Burning.wav

Peak level 98.7 %
Extraction speed 4.5 X
Track quality 100.0 %
Test CRC B703EA18
Copy CRC B703EA18
Accurately ripped (confidence 5) [CFAB42D7] (AR v2)
Copy OK


All tracks accurately ripped

No errors occurred

End of status report

==== Log checksum C187724692F03C8457156D5619904351DC35AD6D1106409A88A400833109E02B ====

[CUETools log; Date: 29.05.2019 12:31:54; Version: 2.1.4]
[CTDB TOCID: 4y8a.baFJvAkyw05SAhpw11Cpuc-] found.
Track | CTDB Status
1 | (83/83) Accurately ripped
2 | (83/83) Accurately ripped
3 | (83/83) Accurately ripped
4 | (83/83) Accurately ripped
5 | (83/83) Accurately ripped
6 | (82/83) Accurately ripped
[AccurateRip ID: 000950e8-0030e96a-52098b06] found.
Track [ CRC | V2 ] Status
01 [3b7b31d1|8626e1b7] (17+65/84) Accurately ripped
02 [bba2f120|0ebc750f] (17+64/83) Accurately ripped
03 [e113be52|dc461220] (17+63/82) Accurately ripped
04 [65581b99|8cea7fa4] (18+64/84) Accurately ripped
05 [69e4d3d7|9eb81a21] (17+64/83) Accurately ripped
06 [6ef8de4d|cfab42d7] (17+64/83) Accurately ripped
Offsetted by -492:
01 [f2dd0551] (00/84) No match (V2 was not tested)
02 [53c888e0] (00/83) No match (V2 was not tested)
03 [c0896072] (00/82) No match (V2 was not tested)
04 [d4413901] (00/84) No match (V2 was not tested)
05 [ed984154] (00/83) No match (V2 was not tested)
06 [b5d4a444] (00/83) No match (V2 was not tested)

Track Peak [ CRC32 ] [W/O NULL] [ LOG ]
– 98,8 [2722E7F1] [20C8E751]
01 98,8 [047022AA] [5B69004F] CRC32
02 98,4 [428FAC87] [D73B06BC] CRC32
03 98,6 [F421D4FA] [69F1AF5A] CRC32
04 98,8 [534FDADD] [F638440C] CRC32
05 98,8 [5EAC3E89] [13D7D329] CRC32
06 98,7 [B703EA18] [D40520F2] CRC32

Renaissance - 5 Studio Albums (1973-1978)

Renaissance - Turn of the Cards (1974) [Reissue 2006]
EAC Rip | FLAC (tracks+.cue+log) - 282 MB | MP3 CBR 320 kbps (LAME 3.93) - 96 MB | Covers - 64 MB
Genre: Progressive Rock | RAR 3% Rec. | Label: Repertoire Records (REP 5079)

Tracklist:
01. Running Hard
02. I Think of You
03. Things I Don't Undertand
04. Black Flame
05. Cold Is Being
06. Mother Russia

Total time: 41:15

Exact Audio Copy V1.0 beta 3 from 29. August 2011

EAC extraction logfile from 31. January 2013, 23:35

Renaissance / Turn Of The Cards

Used drive : _NEC DVD_RW ND-3540A Adapter: 1 ID: 1

Read mode : Secure
Utilize accurate stream : Yes
Defeat audio cache : Yes
Make use of C2 pointers : No

Read offset correction : 48
Overread into Lead-In and Lead-Out : No
Fill up missing offset samples with silence : Yes
Delete leading and trailing silent blocks : No
Null samples used in CRC calculations : Yes
Used interface : Native Win32 interface for Win NT & 2000
Gap handling : Appended to previous track

Used output format : User Defined Encoder
Selected bitrate : 1024 kBit/s
Quality : High
Add ID3 tag : Yes
Command line compressor : C:\Program Files (x86)\Exact Audio Copy\FLAC\FLAC.EXE
Additional command line options : -6 -V -T "ARTIST=%artist%" -T "TITLE=%title%" -T "ALBUM=%albumtitle%" -T "DATE=%year%" -T "TRACKNUMBER=%tracknr%" -T "GENRE=%genre%" -T "COMMENT=%comment%" %hascover%–picture="%coverfile%"%hascover% %source% -o %dest%


TOC of the extracted CD

Track | Start | Length | Start sector | End sector
––––––––––––––––––––––––––––-
1 | 0:00.00 | 9:35.70 | 0 | 43194
2 | 9:35.70 | 3:07.04 | 43195 | 57223
3 | 12:42.74 | 9:30.56 | 57224 | 100029
4 | 22:13.55 | 6:27.27 | 100030 | 129081
5 | 28:41.07 | 3:03.37 | 129082 | 142843
6 | 31:44.44 | 9:19.36 | 142844 | 184804


Track 1

Filename D:\Music\olaf_alien\Renaissance - Turn of the Cards (1974, BTM - 2006, Repertoire)\01 - Running Hard.wav

Pre-gap length 0:00:02.00

Peak level 98.8 %
Extraction speed 4.4 X
Track quality 100.0 %
Test CRC 88796BAE
Copy CRC 88796BAE
Accurately ripped (confidence 2) [8B63BC4C] (AR v2)
Copy OK

Track 2

Filename D:\Music\olaf_alien\Renaissance - Turn of the Cards (1974, BTM - 2006, Repertoire)\02 - I Think Of You.wav

Pre-gap length 0:00:01.59

Peak level 98.8 %
Extraction speed 3.9 X
Track quality 100.0 %
Test CRC 5182D9AC
Copy CRC 5182D9AC
Accurately ripped (confidence 2) [C5158EEB] (AR v2)
Copy OK

Track 3

Filename D:\Music\olaf_alien\Renaissance - Turn of the Cards (1974, BTM - 2006, Repertoire)\03 - Things I Don't Understand.wav

Pre-gap length 0:00:01.59

Peak level 98.8 %
Extraction speed 4.5 X
Track quality 100.0 %
Test CRC ABAD0A74
Copy CRC ABAD0A74
Accurately ripped (confidence 2) [CBA216D1] (AR v2)
Copy OK

Track 4

Filename D:\Music\olaf_alien\Renaissance - Turn of the Cards (1974, BTM - 2006, Repertoire)\04 - Black Flame.wav

Pre-gap length 0:00:01.59

Peak level 98.8 %
Extraction speed 4.3 X
Track quality 100.0 %
Test CRC AFBAA853
Copy CRC AFBAA853
Accurately ripped (confidence 2) [84FEA1D9] (AR v2)
Copy OK

Track 5

Filename D:\Music\olaf_alien\Renaissance - Turn of the Cards (1974, BTM - 2006, Repertoire)\05 - Cold Is Being.wav

Pre-gap length 0:00:02.38

Peak level 98.8 %
Extraction speed 3.9 X
Track quality 100.0 %
Test CRC A3BA6600
Copy CRC A3BA6600
Accurately ripped (confidence 2) [655BD750] (AR v2)
Copy OK

Track 6

Filename D:\Music\olaf_alien\Renaissance - Turn of the Cards (1974, BTM - 2006, Repertoire)\06 - Mother Russia.wav

Pre-gap length 0:00:02.41

Peak level 98.8 %
Extraction speed 4.5 X
Track quality 100.0 %
Test CRC 6E7609AB
Copy CRC 6E7609AB
Accurately ripped (confidence 2) [AAE25A6E] (AR v2)
Copy OK


All tracks accurately ripped

No errors occurred

End of status report

==== Log checksum 78A5D6BE012487C8AD4DC5C32F81FDEF2439928E5D6D266EEA4366BF0790650F ====

[CUETools log; Date: 29.05.2019 12:32:18; Version: 2.1.4]
[CTDB TOCID: ZxYsg9smV2uD7e6duKeJ4D3TwWE-] found.
Track | CTDB Status
1 | (69/70) Accurately ripped
2 | (70/70) Accurately ripped
3 | (70/70) Accurately ripped
4 | (70/70) Accurately ripped
5 | (70/70) Accurately ripped
6 | (70/70) Accurately ripped
[AccurateRip ID: 000a071c-0034b554-4f09a006] found.
Track [ CRC | V2 ] Status
01 [9146608c|8b63bc4c] (10+41/51) Accurately ripped
02 [4c66fde6|c5158eeb] (10+42/52) Accurately ripped
03 [a9010679|cba216d1] (10+42/52) Accurately ripped
04 [033329a7|84fea1d9] (10+42/52) Accurately ripped
05 [dfd832e0|655bd750] (10+41/51) Accurately ripped
06 [aa478eba|aae25a6e] (10+42/52) Accurately ripped
Offsetted by -492:
01 [fd9af4e4] (00/51) No match (V2 was not tested)
02 [a0ba3c86] (00/52) No match (V2 was not tested)
03 [c6453a55] (00/52) No match (V2 was not tested)
04 [4e5a077b] (00/52) No match (V2 was not tested)
05 [066f9724] (00/51) No match (V2 was not tested)
06 [ab15fcd6] (00/52) No match (V2 was not tested)

Track Peak [ CRC32 ] [W/O NULL] [ LOG ]
– 98,8 [53F61E1B] [4EE40C79]
01 98,8 [88796BAE] [3DFEE340] CRC32
02 98,8 [5182D9AC] [F87E7232] CRC32
03 98,8 [ABAD0A74] [B1E57DF7] CRC32
04 98,8 [AFBAA853] [550AB49C] CRC32
05 98,8 [A3BA6600] [0BF6F4F1] CRC32
06 98,8 [6E7609AB] [6EF875ED] CRC32

Renaissance - 5 Studio Albums (1973-1978)

Renaissance - Scheherazade And Other Stories (1975) [Reissue 1994]
EAC Rip | WavPack (image+.cue+log) - 253 MB | MP3 CBR 320 kbps (LAME 3.93) - 108 MB | Covers - 46 MB
Genre: Progressive Rock | RAR 3% Rec. | Label: Repertoire Records (REP 4490-WY)

Tracklist:
01. Trip To The Fair
02. The Vultures Fly High
03. Ocean Gypsy
04. Song Of Scheherazade:
I) Fanfare
II) The Betrayal
III) The sSultan
IV) Love Theme
V) The young Prince and Princess as Told by Scheherazade
VI) Festival Preparations
VII) Fugue for the Sultan
VIII) The Festival
IX) Finale

Total time: 45:52

Exact Audio Copy V0.99 prebeta 5 from 4. May 2009

EAC extraction logfile from 25. March 2010, 10:44

Renaissance / Scheherazade And Other Stories

Used drive : HL-DT-STDVDRAM GH22NS40 Adapter: 2 ID: 1

Read mode : Secure
Utilize accurate stream : Yes
Defeat audio cache : Yes
Make use of C2 pointers : No

Read offset correction : 667
Overread into Lead-In and Lead-Out : No
Fill up missing offset samples with silence : Yes
Delete leading and trailing silent blocks : No
Null samples used in CRC calculations : Yes
Used interface : Installed external ASPI interface

Used output format : User Defined Encoder
Selected bitrate : 896 kBit/s
Quality : High
Add ID3 tag : No
Command line compressor : C:\Documents and Settings\Desktop\wavpack.exe
Additional command line options : -hlmx2 %s


TOC of the extracted CD

Track | Start | Length | Start sector | End sector
––––––––––––––––––––––––––––-
1 | 0:00.00 | 10:54.60 | 0 | 49109
2 | 10:54.60 | 3:08.10 | 49110 | 63219
3 | 14:02.70 | 7:09.07 | 63220 | 95401
4 | 21:12.02 | 24:39.65 | 95402 | 206391


Range status and errors

Selected range

Filename C:\PROGRAMMS\Incoming\Scheherazade And Other Stories\Renaissance - Scheherazade And Other Stories.wav

Peak level 98.4 %
Range quality 100.0 %
Test CRC C569F9AD
Copy CRC C569F9AD
Copy OK

No errors occurred


AccurateRip summary

Track 1 accurately ripped (confidence 5) [BFBA9A22]
Track 2 accurately ripped (confidence 5) [C602ED63]
Track 3 accurately ripped (confidence 5) [94C12252]
Track 4 accurately ripped (confidence 5) [CE7FD4BD]

All tracks accurately ripped

End of status report

[CUETools log; Date: 29.05.2019 12:38:25; Version: 2.1.4]
[CTDB TOCID: i0yzITdqtRtWYUXTr62xiJHodoQ-] found.
Track | CTDB Status
1 | (201/206) Accurately ripped
2 | (204/206) Accurately ripped
3 | (205/206) Accurately ripped
4 | (204/206) Accurately ripped
[AccurateRip ID: 000651ac-0019f649-310abf04] found.
Track [ CRC | V2 ] Status
01 [bfba9a22|3d3d496e] (011+012/167) Accurately ripped
02 [c602ed63|59c18c17] (011+012/167) Accurately ripped
03 [94c12252|468f7330] (011+012/166) Accurately ripped
04 [ce7fd4bd|f61342f8] (011+012/167) Accurately ripped
Offsetted by -829:
01 [05d1272f] (045/167) Accurately ripped
02 [c364c06a] (045/167) Accurately ripped
03 [bb66ff94] (044/166) Accurately ripped
04 [81218bf0] (045/167) Accurately ripped
Offsetted by 29:
01 [e171de9f] (008/167) Accurately ripped
02 [64d445bc] (008/167) Accurately ripped
03 [83f65050] (008/166) Accurately ripped
04 [c7f1106a] (008/167) Accurately ripped
Offsetted by -1510:
01 [60d57fe6] (000/167) No match (V2 was not tested)
02 [d9a38275] (000/167) No match (V2 was not tested)
03 [9e01c78e] (000/166) No match (V2 was not tested)
04 [5016cbf7] (000/167) No match (V2 was not tested)
Offsetted by -799:
01 [fc7f9a17] (000/167) No match (V2 was not tested)
02 [b722d530] (000/167) No match (V2 was not tested)
03 [5a952f28] (000/166) No match (V2 was not tested)
04 [e4473c6e] (000/167) No match (V2 was not tested)
Offsetted by 11:
01 [0c3e931f] (000/167) No match (V2 was not tested)
02 [6c2f0612] (000/167) No match (V2 was not tested)
03 [247433c4] (000/166) No match (V2 was not tested)
04 [5940d9b8] (000/167) No match (V2 was not tested)

Track Peak [ CRC32 ] [W/O NULL] [ LOG ]
– 98,4 [C569F9AD] [7E31C250] CRC32
01 98,4 [C67413D5] [31F02764]
02 98,4 [83CF5CBB] [444A6741]
03 98,4 [9CC72ED4] [725FCBC0]
04 98,4 [6E22E04E] [D4B3F742]

Renaissance - 5 Studio Albums (1973-1978)

Renaissance - Novella (1977)
EAC Rip | FLAC (tracks+.cue+log) - 227 MB | MP3 CBR 320 kbps (LAME 3.93) - 95 MB | Covers - 25 MB
Genre: Progressive Rock | RAR 3% Rec. | Label: Sire Records (7599-26516-2)

Tracklist:
01. Can You Hear Me?
02. The Sisters
03. Midas Man
04. The Captive Heart
05. Touching Once (Is So Hard To Keep)

Total time: 40:22

Exact Audio Copy V1.0 beta 3 from 29. August 2011

EAC extraction logfile from 31. January 2013, 22:35

Renaissance / Novella

Used drive : _NEC DVD_RW ND-3540A Adapter: 1 ID: 1

Read mode : Secure
Utilize accurate stream : Yes
Defeat audio cache : Yes
Make use of C2 pointers : No

Read offset correction : 48
Overread into Lead-In and Lead-Out : No
Fill up missing offset samples with silence : Yes
Delete leading and trailing silent blocks : No
Null samples used in CRC calculations : Yes
Used interface : Native Win32 interface for Win NT & 2000
Gap handling : Appended to previous track

Used output format : User Defined Encoder
Selected bitrate : 1024 kBit/s
Quality : High
Add ID3 tag : Yes
Command line compressor : C:\Program Files (x86)\Exact Audio Copy\FLAC\FLAC.EXE
Additional command line options : -6 -V -T "ARTIST=%artist%" -T "TITLE=%title%" -T "ALBUM=%albumtitle%" -T "DATE=%year%" -T "TRACKNUMBER=%tracknr%" -T "GENRE=%genre%" -T "COMMENT=%comment%" %hascover%–picture="%coverfile%"%hascover% %source% -o %dest%


TOC of the extracted CD

Track | Start | Length | Start sector | End sector
––––––––––––––––––––––––––––-
1 | 0:00.00 | 13:39.37 | 0 | 61461
2 | 13:39.37 | 7:12.48 | 61462 | 93909
3 | 20:52.10 | 5:46.07 | 93910 | 119866
4 | 26:38.17 | 4:16.28 | 119867 | 139094
5 | 30:54.45 | 9:27.07 | 139095 | 181626


Track 1

Filename D:\Music\olaf_alien\Renaissance - Novella (1977 - 1996, Sire Records)\01 - Can You Hear Me.wav

Pre-gap length 0:00:02.00

Peak level 96.7 %
Extraction speed 4.6 X
Track quality 100.0 %
Test CRC 1B683324
Copy CRC 1B683324
Accurately ripped (confidence 2) [E3401975] (AR v2)
Copy OK

Track 2

Filename D:\Music\olaf_alien\Renaissance - Novella (1977 - 1996, Sire Records)\02 - Sisters.wav

Peak level 95.4 %
Extraction speed 4.4 X
Track quality 100.0 %
Test CRC 012D30FE
Copy CRC 012D30FE
Accurately ripped (confidence 2) [A7B25C7C] (AR v2)
Copy OK

Track 3

Filename D:\Music\olaf_alien\Renaissance - Novella (1977 - 1996, Sire Records)\03 - Midas Man.wav

Peak level 97.1 %
Extraction speed 4.3 X
Track quality 100.0 %
Test CRC B8AA19DE
Copy CRC B8AA19DE
Accurately ripped (confidence 2) [2CFDF73C] (AR v2)
Copy OK

Track 4

Filename D:\Music\olaf_alien\Renaissance - Novella (1977 - 1996, Sire Records)\04 - Captive Heart.wav

Pre-gap length 0:00:03.02

Peak level 68.0 %
Extraction speed 4.2 X
Track quality 100.0 %
Test CRC 3DDFF39D
Copy CRC 3DDFF39D
Accurately ripped (confidence 2) [23F0208E] (AR v2)
Copy OK

Track 5

Filename D:\Music\olaf_alien\Renaissance - Novella (1977 - 1996, Sire Records)\05 - Touching Once (Is So Hard to Keep).wav

Pre-gap length 0:00:02.15

Peak level 97.3 %
Extraction speed 4.5 X
Track quality 100.0 %
Test CRC E9F81CD3
Copy CRC E9F81CD3
Accurately ripped (confidence 2) [76FB6509] (AR v2)
Copy OK


All tracks accurately ripped

No errors occurred

End of status report

==== Log checksum 18E94AC0484A91163246829ACB16D86A243BD00FB2607FB26EAA01B0BCDAF3B1 ====

[CUETools log; Date: 10.04.2021 15:19:51; Version: 2.1.4]
[CTDB TOCID: 0Vd347slgGsUofKdtgIkeQ_Xn7M-] found.
Track | CTDB Status
1 | (211/226) Accurately ripped
2 | (212/226) Accurately ripped
3 | (213/226) Accurately ripped
4 | (210/226) Accurately ripped
5 | (211/226) Accurately ripped
[AccurateRip ID: 000917f9-0028bb30-34097505] found.
Track [ CRC | V2 ] Status
01 [9fbcf503|e3401975] (010+030/153) Accurately ripped
02 [168cda4d|a7b25c7c] (010+030/154) Accurately ripped
03 [aa86ad53|2cfdf73c] (010+030/154) Accurately ripped
04 [258952f0|23f0208e] (010+030/154) Accurately ripped
05 [5e85b18b|76fb6509] (010+030/153) Accurately ripped
Offsetted by 5:
01 [3eb41528] (002/153) Accurately ripped
02 [3f1f136b] (002/154) Accurately ripped
03 [f938c0a6] (002/154) Accurately ripped
04 [b0997eb8] (002/154) Accurately ripped
05 [e4448d5c] (002/153) Accurately ripped
Offsetted by 664:
01 [2f844098] (022/153) Accurately ripped
02 [c843b530] (023/154) Accurately ripped
03 [16e719fb] (023/154) Accurately ripped
04 [e2b9a2b0] (023/154) Accurately ripped
05 [f32152c3] (022/153) Accurately ripped
Offsetted by 1185:
01 [d4223203] (004/153) Accurately ripped
02 [dba60b94] (004/154) Accurately ripped
03 [8562912a] (004/154) Accurately ripped
04 [e381db18] (004/154) Accurately ripped
05 [30373208] (004/153) Accurately ripped
Offsetted by 1502:
01 [2c7690e5] (010/153) Accurately ripped
02 [94341465] (010/154) Accurately ripped
03 [cf7c8d85] (010/154) Accurately ripped
04 [20e97fa0] (010/154) Accurately ripped
05 [e9486f31] (010/153) Accurately ripped
Offsetted by 6:
01 [4a48768d] (000/153) No match (V2 was not tested)
02 [e21b85dd] (000/154) No match (V2 was not tested)
03 [6f5c5e1d] (000/154) No match (V2 was not tested)
04 [32cfede0] (000/154) No match (V2 was not tested)
05 [cbd11fb9] (000/153) No match (V2 was not tested)
Offsetted by 599:
01 [7c56bc65] (000/153) No match (V2 was not tested)
02 [d10f2514] (000/154) No match (V2 was not tested)
03 [17dc1ec4] (000/154) No match (V2 was not tested)
04 [d2e76988] (000/154) No match (V2 was not tested)
05 [28702926] (000/153) No match (V2 was not tested)

Track Peak [ CRC32 ] [W/O NULL] [ LOG ]
– 97,3 [B04235F3] [599A8B6D]
01 96,7 [1B683324] [CBE6ABBB] CRC32
02 95,4 [012D30FE] [16A2A6C8] CRC32
03 97,1 [B8AA19DE] [EF5F1D67] CRC32
04 68,0 [3DDFF39D] [1A0277E5] CRC32
05 97,3 [E9F81CD3] [1A123F89] CRC32

Renaissance - 5 Studio Albums (1973-1978)

Renaissance - A Song For All Seasons (1978)
EAC Rip | WavPack (image+.cue+log) - 280 MB | MP3 CBR 320 kbps (LAME 3.93) - 105 MB | Covers - 42 MB
Genre: Progressive Rock | RAR 3% Rec. | Label: Sire Records (7599-25959-2)

Tracklist:
01. Opening Out
02. Day of the Dreamer
03. Closer than Yesterday
04. Kindness (At the End)
05. Back Home Once Again
06. She Is Love
07. Northern Lights
08. A Song for All Seasons

Total time: 44:40

Exact Audio Copy V0.99 prebeta 5 from 4. May 2009

EAC extraction logfile from 24. February 2010, 21:53

Renaissance / A Song for All Seasons

Used drive : HP DVD Writer 1060r Adapter: 1 ID: 0

Read mode : Secure
Utilize accurate stream : Yes
Defeat audio cache : Yes
Make use of C2 pointers : No

Read offset correction : 6
Overread into Lead-In and Lead-Out : No
Fill up missing offset samples with silence : Yes
Delete leading and trailing silent blocks : No
Null samples used in CRC calculations : Yes
Used interface : Installed external ASPI interface

Used output format : Internal WAV Routines
Sample format : 44.100 Hz; 16 Bit; Stereo


TOC of the extracted CD

Track | Start | Length | Start sector | End sector
––––––––––––––––––––––––––––-
1 | 0:00.00 | 4:15.67 | 0 | 19191
2 | 4:15.67 | 9:43.70 | 19192 | 62986
3 | 13:59.62 | 3:19.08 | 62987 | 77919
4 | 17:18.70 | 4:48.42 | 77920 | 99561
5 | 22:07.37 | 3:16.48 | 99562 | 114309
6 | 25:24.10 | 4:13.07 | 114310 | 133291
7 | 29:37.17 | 4:07.15 | 133292 | 151831
8 | 33:44.32 | 10:55.55 | 151832 | 201011


Range status and errors

Selected range

Filename C:\Incoming\Renaissance\Renaissance - A Song for All Seasons.wav

Peak level 100.0 %
Range quality 100.0 %
Copy CRC 6CDC8903
Copy OK

No errors occurred


AccurateRip summary

Track 1 accurately ripped (confidence 3) [988B1F51]
Track 2 accurately ripped (confidence 3) [335B6431]
Track 3 accurately ripped (confidence 3) [32BEEE45]
Track 4 accurately ripped (confidence 3) [7F96E002]
Track 5 accurately ripped (confidence 3) [CBE905FC]
Track 6 accurately ripped (confidence 3) [F7AAB64D]
Track 7 accurately ripped (confidence 3) [766B32CE]
Track 8 accurately ripped (confidence 3) [417C79D4]

All tracks accurately ripped

End of status report

[CUETools log; Date: 29.05.2019 12:37:22; Version: 2.1.4]
[CTDB TOCID: KltW5MJG.zYvye8Jf6VMQrpWeXE-] found.
Track | CTDB Status
1 | (145/147) Accurately ripped
2 | (145/147) Accurately ripped
3 | (145/147) Accurately ripped
4 | (144/147) Accurately ripped
5 | (145/147) Accurately ripped
6 | (145/147) Accurately ripped
7 | (145/147) Accurately ripped
8 | (144/147) Accurately ripped
[AccurateRip ID: 000d1fcb-0056a990-610a7808] found.
Track [ CRC | V2 ] Status
01 [988b1f51|da8ad5dc] (014+031/136) Accurately ripped
02 [335b6431|ef129f55] (014+031/135) Accurately ripped
03 [32beee45|d4a27523] (014+031/134) Accurately ripped
04 [7f96e002|325e78da] (014+031/134) Accurately ripped
05 [cbe905fc|eba663ce] (014+031/134) Accurately ripped
06 [f7aab64d|01a02f5f] (014+031/134) Accurately ripped
07 [766b32ce|f7a38f22] (014+032/136) Accurately ripped
08 [417c79d4|22c97da8] (014+031/136) Accurately ripped
Offsetted by 664:
01 [3c834b59] (028/136) Accurately ripped
02 [31402a59] (027/135) Accurately ripped
03 [f3a13be5] (027/134) Accurately ripped
04 [174b5722] (027/134) Accurately ripped
05 [1216c76c] (027/134) Accurately ripped
06 [177cbce5] (027/134) Accurately ripped
07 [0cb12a3e] (027/136) Accurately ripped
08 [a48fcfbc] (028/136) Accurately ripped
Offsetted by 1502:
01 [83bd453b] (012/136) Accurately ripped
02 [94601e43] (012/135) Accurately ripped
03 [336564cd] (012/134) Accurately ripped
04 [df3c346a] (012/134) Accurately ripped
05 [beb4c408] (012/134) Accurately ripped
06 [66f8b12b] (012/134) Accurately ripped
07 [ac459c5a] (011/136) Accurately ripped
08 [191e3096] (012/136) Accurately ripped
Offsetted by -687:
01 [f510231c] (000/136) No match (V2 was not tested)
02 [b0e8e8e8] (000/135) No match (V2 was not tested)
03 [a7b5f201] (000/134) No match (V2 was not tested)
04 [223e78ce] (000/134) No match (V2 was not tested)
05 [f9a97d76] (000/134) No match (V2 was not tested)
06 [fdaf191e] (000/134) No match (V2 was not tested)
07 [7965e488] (000/136) No match (V2 was not tested)
08 [9b5d4a33] (000/136) No match (V2 was not tested)

Track Peak [ CRC32 ] [W/O NULL] [ LOG ]
– 100,0 [6CDC8903] [A7B3F06B] CRC32
01 98,8 [9BB79455] [463AF8CD]
02 100,0 [15202BBC] [BC12E8C8]
03 99,9 [5C6A138B] [9712A54F]
04 100,0 [6AAD486D] [673F7AC8]
05 100,0 [665A82E8] [347B9F8C]
06 69,6 [E35BAF7D] [9A783259]
07 98,8 [BAB58F78] [E87C3FE1]
08 100,0 [461B5BC2] [EF08528B]

Thanks to olaf_alien, taurus66