Tags
Language
Tags

Renaud Capuçon, David Fray - Johann Sebastian Bach: Sonatas for Violin and Keyboard (2019)

Posted By: ArlegZ
Renaud Capuçon, David Fray - Johann Sebastian Bach: Sonatas for Violin and Keyboard (2019)

Renaud Capuçon, David Fray - Johann Sebastian Bach: Sonatas for Violin and Keyboard (2019)
EAC | FLAC | Image (Cue & Log) ~ 282 Mb | Total time: 64:10 | Scans included
Classical | Label: Erato | 9029550578 | Recorded: 2017

The violin was one of Bach’s favourite instruments and inspired his most lyrical outpourings. We know he was greatly influenced by the Italian masters whose work he discovered during his Weimar years – by the power of Frescobaldi, the melodic flexibility of Corelli, the sunny grace of Vivaldi – but he developed his own wonderful artistry in writing music of polyphonic density for the violin and “playing” with its sound palette. His deep understanding of the instrument clearly enabled him to exploit its full potential and to write as well as perform music of the utmost virtuosity.

Performer:
Renaud Capuçon, violin
David Fray, piano

Track List:
Sonata For Violin & Keyboard No. 5 In F Minor, BWV 1018
01. [Largo]
02. Allegro
03. Adagio
04. Vivace
Sonata For Violin & Keyboard No. 3 In E Major, BWV 1016
05. Adagio
06. Allegro
07. Adagio ma non tanto
08. Allegro
Sonata For Violin & Keyboard No. 4 In C Minor, BWV 1017
09. Siciliano. Largo
10. Allegro
11. Adagio
12. Allegro
Sonata For Violin & Keyboard No. 6 In G Major, BWV 1019
13. Allegro
14. Largo
15. Allegro
16. Adagio
17. Allegro


Exact Audio Copy V1.5 from 20. February 2020

EAC extraction logfile from 21. July 2020, 10:35

Renaud Capuçon & David Fray / Bach: Sonatas for Violin & Keyboard Nos 3-6 (Disc 1)

Used drive : HL-DT-STDVDRAM GH24NSD5 Adapter: 1 ID: 0

Read mode : Secure
Utilize accurate stream : Yes
Defeat audio cache : Yes
Make use of C2 pointers : No

Read offset correction : 6
Overread into Lead-In and Lead-Out : No
Fill up missing offset samples with silence : Yes
Delete leading and trailing silent blocks : No
Null samples used in CRC calculations : Yes
Used interface : Native Win32 interface for Win NT & 2000

Used output format : User Defined Encoder
Selected bitrate : 896 kBit/s
Quality : High
Add ID3 tag : No
Command line compressor : C:\Program Files (x86)\Exact Audio Copy\FLAC\FLAC.EXE
Additional command line options : -6 -V -T "ARTIST=%artist%" -T "TITLE=%title%" -T "ALBUM=%albumtitle%" -T "DATE=%year%" -T "TRACKNUMBER=%tracknr%" -T "GENRE=%genre%" -T "COMMENT=%comment%" -T "BAND=%albuminterpret%" -T "ALBUMARTIST=%albuminterpret%" -T "COMPOSER=%composer%" %haslyrics%–tag-from-file=LYRICS="%lyricsfile%"%haslyrics% -T "DISCNUMBER=%cdnumber%" -T "TOTALDISCS=%totalcds%" -T "TOTALTRACKS=%numtracks%" %hascover%–picture="%coverfile%"%hascover% %source% -o %dest%


TOC of the extracted CD

Track | Start | Length | Start sector | End sector
––––––––––––––––––––––––––––-
1 | 0:00.00 | 4:52.17 | 0 | 21916
2 | 4:52.17 | 4:20.42 | 21917 | 41458
3 | 9:12.59 | 4:48.68 | 41459 | 63126
4 | 14:01.52 | 2:10.29 | 63127 | 72905
5 | 16:12.06 | 4:23.22 | 72906 | 92652
6 | 20:35.28 | 2:51.16 | 92653 | 105493
7 | 23:26.44 | 4:44.28 | 105494 | 126821
8 | 28:10.72 | 3:45.73 | 126822 | 143769
9 | 31:56.70 | 3:54.17 | 143770 | 161336
10 | 35:51.12 | 4:05.67 | 161337 | 179778
11 | 39:57.04 | 3:41.33 | 179779 | 196386
12 | 43:38.37 | 4:23.34 | 196387 | 216145
13 | 48:01.71 | 3:23.73 | 216146 | 231443
14 | 51:25.69 | 1:54.71 | 231444 | 240064
15 | 53:20.65 | 4:37.14 | 240065 | 260853
16 | 57:58.04 | 3:01.32 | 260854 | 274460
17 | 60:59.36 | 3:10.38 | 274461 | 288748


Range status and errors

Selected range

Filename I:\Rips\Bach JS - Sonatas - Capuçon, Fray\Renaud Capuçon & David Fray - Bach- Sonatas for Violin & Keyboard Nos 3-6 (Disc 1).wav

Peak level 94.4 %
Extraction speed 7.6 X
Range quality 100.0 %
Test CRC C1075FA0
Copy CRC C1075FA0
Copy OK

No errors occurred


AccurateRip summary

Track 1 accurately ripped (confidence 6) [4652B0E3] (AR v2)
Track 2 accurately ripped (confidence 6) [B56786E3] (AR v2)
Track 3 accurately ripped (confidence 6) [EF9997AB] (AR v2)
Track 4 accurately ripped (confidence 6) [5F989155] (AR v2)
Track 5 accurately ripped (confidence 6) [D6E0447B] (AR v2)
Track 6 accurately ripped (confidence 6) [BB81792C] (AR v2)
Track 7 accurately ripped (confidence 6) [945FFBA6] (AR v2)
Track 8 accurately ripped (confidence 6) [348618A7] (AR v2)
Track 9 accurately ripped (confidence 6) [D59838A8] (AR v2)
Track 10 accurately ripped (confidence 6) [90C1F530] (AR v2)
Track 11 accurately ripped (confidence 6) [99BDE877] (AR v2)
Track 12 accurately ripped (confidence 6) [34977F66] (AR v2)
Track 13 accurately ripped (confidence 6) [E68BB1C0] (AR v2)
Track 14 accurately ripped (confidence 6) [2BA2427A] (AR v2)
Track 15 accurately ripped (confidence 6) [3F47DA2D] (AR v2)
Track 16 accurately ripped (confidence 6) [85E42B10] (AR v2)
Track 17 accurately ripped (confidence 6) [1641AC14] (AR v2)

All tracks accurately ripped

End of status report

–– CUETools DB Plugin V2.1.6

[CTDB TOCID: ccGZjAFwVfGUcIfTSH3PecJ7jF0-] found
Submit result: ccGZjAFwVfGUcIfTSH3PecJ7jF0- has been confirmed
Track | CTDB Status
1 | (24/24) Accurately ripped
2 | (24/24) Accurately ripped
3 | (24/24) Accurately ripped
4 | (24/24) Accurately ripped
5 | (24/24) Accurately ripped
6 | (24/24) Accurately ripped
7 | (24/24) Accurately ripped
8 | (24/24) Accurately ripped
9 | (24/24) Accurately ripped
10 | (24/24) Accurately ripped
11 | (24/24) Accurately ripped
12 | (24/24) Accurately ripped
13 | (23/24) Accurately ripped
14 | (24/24) Accurately ripped
15 | (24/24) Accurately ripped
16 | (24/24) Accurately ripped
17 | (23/24) Accurately ripped


==== Log checksum A1C5BA0A77B91CF6485B2CBB5A81D1877988DA87027F7F90D02E2CE3B2A9311F ====

Renaud Capuçon, David Fray - Johann Sebastian Bach: Sonatas for Violin and Keyboard (2019)

Thanks to the original releaser