Tags
Language
Tags
June 2024
Su Mo Tu We Th Fr Sa
26 27 28 29 30 31 1
2 3 4 5 6 7 8
9 10 11 12 13 14 15
16 17 18 19 20 21 22
23 24 25 26 27 28 29
30 1 2 3 4 5 6

Riccardo Chailly, Lucerne Festival Orchestra - Richard Strauss: Also sprach Zarathustra (2019)

Posted By: ArlegZ
Riccardo Chailly, Lucerne Festival Orchestra - Richard Strauss: Also sprach Zarathustra (2019)

Riccardo Chailly, Lucerne Festival Orchestra - Richard Strauss: Also Sprach Zarathustra, Tod und Verklärung, Till Eulenspiegel & Salome's Dance (2019)
EAC | FLAC | Image (Cue & Log) ~ 346 Mb | Total time: 85:17 | Scans included
Classical | Label: Decca | # 483 3080 | Recorded: 2017

Following critical acclaim for their world premiere recording of Stravinsky’s Funeral Song, the Lucerne Festival Orchestra and Riccardo Chailly return with a new collaboration featuring some of the greatest works in the orchestral repertoire by Richard Strauss, including Also sprach Zarathustra and Till Eulenspiegel, recorded live at the opening concert of the Lucerne Festival, 2017.

Performer:
Lucerne Festival Orchestra
Riccardo Chailly, conductor

Track List:
Also Sprach Zarathustra, Op. 30, TrV 176
01. 1. Einleitung (Sonnenaufgang)
02. 2. Von den Hinterweltlern
03. 3. Von der großen Sehnsucht
04. 4. Von den Freuden und Leidenschaften
05. 5. Das Grablied
06. 6. Von der Wissenschaft
07. 7. Der Genesende
08. 8. Das Tanzlied
09. 9. Nachtwandlerlied
Tod und Verklärung, Op. 24, TrV 158
10. 1. Largo
11. 2. Allegro molto agitato
12. 3. Meno mosso
13. 4. Moderato
14. Till Eulenspiegels Lustige Streiche, Op. 28, TrV 171
15. Salome, Op. 54, TrV 215 - Dance Of The Seven Veils


Exact Audio Copy V1.6 from 23. October 2020

EAC extraction logfile from 7. February 2021, 10:28

Riccardo Chailly: Lucerne Festival Orchestra / Richard Strauss: Also Sprach Zarathustra; Tod Und Verklärung; Till Eulenspiegel; Salome's Dance

Used drive : HL-DT-STDVDRAM GH24NSD5 Adapter: 1 ID: 0

Read mode : Secure
Utilize accurate stream : Yes
Defeat audio cache : Yes
Make use of C2 pointers : No

Read offset correction : 6
Overread into Lead-In and Lead-Out : No
Fill up missing offset samples with silence : Yes
Delete leading and trailing silent blocks : No
Null samples used in CRC calculations : Yes
Used interface : Native Win32 interface for Win NT & 2000

Used output format : User Defined Encoder
Selected bitrate : 1024 kBit/s
Quality : High
Add ID3 tag : No
Command line compressor : C:\Program Files (x86)\Exact Audio Copy\FLAC\FLAC.EXE
Additional command line options : -6 -V -T "ARTIST=%artist%" -T "TITLE=%title%" -T "ALBUM=%albumtitle%" -T "DATE=%year%" -T "TRACKNUMBER=%tracknr%" -T "GENRE=%genre%" -T "COMMENT=%comment%" -T "BAND=%albuminterpret%" -T "ALBUMARTIST=%albuminterpret%" -T "COMPOSER=%composer%" %haslyrics%–tag-from-file=LYRICS="%lyricsfile%"%haslyrics% -T "DISCNUMBER=%cdnumber%" -T "TOTALDISCS=%totalcds%" -T "TOTALTRACKS=%numtracks%" %hascover%–picture="%coverfile%"%hascover% %source% -o %dest%


TOC of the extracted CD

Track | Start | Length | Start sector | End sector
––––––––––––––––––––––––––––-
1 | 0:00.00 | 1:50.18 | 0 | 8267
2 | 1:50.18 | 3:43.09 | 8268 | 25001
3 | 5:33.27 | 2:08.70 | 25002 | 34671
4 | 7:42.22 | 2:11.37 | 34672 | 44533
5 | 9:53.59 | 2:20.34 | 44534 | 55067
6 | 12:14.18 | 4:18.16 | 55068 | 74433
7 | 16:32.34 | 5:15.02 | 74434 | 98060
8 | 21:47.36 | 7:37.62 | 98061 | 132397
9 | 29:25.23 | 4:41.54 | 132398 | 153526
10 | 34:07.02 | 5:23.37 | 153527 | 177788
11 | 39:30.39 | 3:52.42 | 177789 | 195230
12 | 43:23.06 | 8:04.67 | 195231 | 231597
13 | 51:27.73 | 8:08.71 | 231598 | 268268
14 | 59:36.69 | 15:35.38 | 268269 | 338431
15 | 75:12.32 | 10:02.19 | 338432 | 383600


Range status and errors

Selected range

Filename I:\Rips\Strauss R - Also sprach Zarathustra - Chailly\Chailly - Richard Strauss - Also Sprach Zarathustra, Tod Und Verklärung, Till Eulenspiegel, Salome's Dance.wav

Peak level 97.7 %
Extraction speed 8.3 X
Range quality 100.0 %
Test CRC 5E4D10D3
Copy CRC 5E4D10D3
Copy OK

No errors occurred


AccurateRip summary

Track 1 accurately ripped (confidence 6) [AF917E8C] (AR v2)
Track 2 accurately ripped (confidence 6) [CF34291B] (AR v2)
Track 3 accurately ripped (confidence 6) [E82ABC41] (AR v2)
Track 4 accurately ripped (confidence 6) [D38AD461] (AR v2)
Track 5 accurately ripped (confidence 6) [BE405C1B] (AR v2)
Track 6 accurately ripped (confidence 6) [DAB9CD24] (AR v2)
Track 7 accurately ripped (confidence 6) [151975D7] (AR v2)
Track 8 accurately ripped (confidence 6) [A3F794A0] (AR v2)
Track 9 accurately ripped (confidence 6) [F63DE12F] (AR v2)
Track 10 accurately ripped (confidence 6) [C786C8E3] (AR v2)
Track 11 accurately ripped (confidence 6) [C1BC644E] (AR v2)
Track 12 accurately ripped (confidence 6) [FE8E8F09] (AR v2)
Track 13 accurately ripped (confidence 6) [3FDAD579] (AR v2)
Track 14 accurately ripped (confidence 6) [7E075ED9] (AR v2)
Track 15 accurately ripped (confidence 6) [D5825756] (AR v2)

All tracks accurately ripped

End of status report

–– CUETools DB Plugin V2.1.6

[CTDB TOCID: 5O1psXH6U5iiJd_GWschoAr0Sgs-] found
Submit result: 5O1psXH6U5iiJd_GWschoAr0Sgs- has been confirmed
Track | CTDB Status
1 | (12/12) Accurately ripped
2 | (12/12) Accurately ripped
3 | (12/12) Accurately ripped
4 | (12/12) Accurately ripped
5 | (12/12) Accurately ripped
6 | (12/12) Accurately ripped
7 | (12/12) Accurately ripped
8 | (12/12) Accurately ripped
9 | (12/12) Accurately ripped
10 | (12/12) Accurately ripped
11 | (12/12) Accurately ripped
12 | (12/12) Accurately ripped
13 | (12/12) Accurately ripped
14 | (12/12) Accurately ripped
15 | (12/12) Accurately ripped


==== Log checksum 81C720975610D1F81CF25CD6520F36417620C66B4A4B1DEACF9B222506664928 ====

Riccardo Chailly, Lucerne Festival Orchestra - Richard Strauss: Also sprach Zarathustra (2019)

Thanks to the original releaser