Subcategories
Tags
Language
Tags

Riccardo Chailly, Orchestra e Coro del Teatro alla Scala, Cecilia Bartoli - Rossini: Il Turco in Italia (1998)

Posted By: ArlegZ
Riccardo Chailly, Orchestra e Coro del Teatro alla Scala, Cecilia Bartoli - Rossini: Il Turco in Italia (1998)

Riccardo Chailly, Orchestra e Coro del Teatro alla Scala, Cecilia Bartoli - Rossini: Il Turco in Italia (1998)
EAC | FLAC | Image (Cue & Log) ~ 581 Mb | Total time: 141:41 | Scans included
Classical | Label: DECCA | # 458 924-2 | Recorded: 1997

Cecilia Bartoli remains one of the world's finest Rossini singers and she proves it again with Il Turco in Italia, her 1st complete Rossini recording since 1993. The performance was recorded in Milan, with the power of the La Scala Orchestra & Chorus and the best Rossini an cast possible, led - of course - by Cecilia Bartoli's coloratura, more brilliant than ever.
This Pirandello-like, 1814 comedy of manners has long lived in the shadow of Rossini's better-known L'Italiana in Algeri, but this recording, more than either of its predecessors, allows it to bloom in all its ironic loveliness. Cecilia Bartoli, a born comedian, sings expressively and angelically while her character behaves devilishly, and the supporting cast is no less effective. Riccardo Chailly brings out all of the score's humor, and all of its warmth as well. A little-known gem for fans of The Barber of Seville.
– Robert Levine

Performer:
Selim - Michele Pertusi
Don Geronio - Alessandro Corbelli
Fiorilla - Cecilia Bartoli
Don Narciso - Ramon Vargas
Poeta - Roberto de Candia
Zaida - Laura Polverelli
Albazar - Francesco Piccoli
Orchestra e Coro del Teatro alla Scala
Conductor - Riccardo Chailly

Track List:
CD1:
01. Sinfonia
02. Atto I. Nostra patria è il mondo intero
03. Ho da far un dramma buffo
04. Ah! se di questi Zingari l'arrivo
05. Vado in traccia d'una Zingara
06. Chi vuol farsi astrologar
07. Ah! mia moglie, san chi sono
08. Brava! Intesi ogni cosa
09. Non si dà follia maggiore
10. Voga, voga, a terra, a terra
11. Bella Italia, alfin ti miro
12. Che bel Turco! Avviciniamoci
13. Serva…Servo
14. Della Zingara amante
15. Un marito scimunito!
16. Olà: tosto il caffè
17. Siete Turchi: non vi credo
18. lo stupisco
19. Come! Sì grave torto
20. Sono arrivato tardi
21. Per piacere alla signora
22. No mia vita, mio tesoro
23. Ho quasi del mio dramma
24. Gran meraviglie
25. Per la fuga è tutto lesto
26. Perché mai se son tradito
27. Evviva l'amore
28. Chi servir non brama amor
29. Qui mia moglie ha da venire
30. Ah! che il cor non m'ingannava
31. Vada via - si guardi bene di cercar
32. Quando il vento improvviso
CD2:
01. Atto II. A proposito, amico
02. D'un bell'uso di Turchia
03. Se Fiorilla di vender bramate
04. Ed invece di pagarla
05. Credeva che questa scena
06. Non v'e' piacer perfetto
07. Che Turca impertinente!
08. Credete alle femmine
09. Fermate!
10. Intesi - ah! tutto intesi
11. Tu seconda il mio disegno
12. Oh sorte deplorabile!
13. Se ho da dirla, avrei molto piacere
14. Ah, se nel mondo
15. Oh! che fatica!
16. Ah! sarebbe troppo dolce
17. Amor la danza mova
18. E Selim non si vede!
19. Amor la danza mova
20. Cara Fiorilla mia
21. Amor la danza mova
22. Eccomi qui
23. Oh! guardate
24. Dunque seguitemi
25. Questo vecchio maledetto
26. Ah! Poeta, non sai…
27. Chi avria creduto
28. I vostri cenci vi mando
29. Squallida veste
30. Caro padre
31. Si' - mi e forza partir
32. Son la vite sul campo appassita
33. Rida a voi sereno il Cielo


Exact Audio Copy V1.6 from 23. October 2020

EAC extraction logfile from 15. June 2021, 21:34

Riccardo Chailly, Orchestra del Teatro alla Scala di Milano / Rossini - Il Turco In Italia CD1

Used drive : PIONEER DVD-RW DVR-218L Adapter: 1 ID: 0

Read mode : Secure
Utilize accurate stream : Yes
Defeat audio cache : Yes
Make use of C2 pointers : No

Read offset correction : 6
Overread into Lead-In and Lead-Out : No
Fill up missing offset samples with silence : Yes
Delete leading and trailing silent blocks : No
Null samples used in CRC calculations : Yes
Used interface : Native Win32 interface for Win NT & 2000

Used output format : User Defined Encoder
Selected bitrate : 128 kBit/s
Quality : High
Add ID3 tag : No
Command line compressor : C:\Program Files\Exact Audio Copy\Flac\flac.exe
Additional command line options : -V -8 -T "Date=%year%" -T "Genre=%genre%" %source%


TOC of the extracted CD

Track | Start | Length | Start sector | End sector
––––––––––––––––––––––––––––-
1 | 0:00.25 | 7:54.63 | 25 | 35637
2 | 7:55.13 | 2:05.37 | 35638 | 45049
3 | 10:00.50 | 2:59.45 | 45050 | 58519
4 | 13:00.20 | 0:45.68 | 58520 | 61962
5 | 13:46.13 | 2:35.25 | 61963 | 73612
6 | 16:21.38 | 1:31.42 | 73613 | 80479
7 | 17:53.05 | 1:28.15 | 80480 | 87094
8 | 19:21.20 | 2:01.13 | 87095 | 96182
9 | 21:22.33 | 3:17.17 | 96183 | 110974
10 | 24:39.50 | 1:45.00 | 110975 | 118849
11 | 26:24.50 | 1:41.20 | 118850 | 126444
12 | 28:05.70 | 1:12.63 | 126445 | 131907
13 | 29:18.58 | 3:26.52 | 131908 | 147409
14 | 32:45.35 | 1:41.40 | 147410 | 155024
15 | 34:27.00 | 5:06.65 | 155025 | 178039
16 | 39:33.65 | 1:34.73 | 178040 | 185162
17 | 41:08.63 | 3:09.57 | 185163 | 199394
18 | 44:18.45 | 2:37.00 | 199395 | 211169
19 | 46:55.45 | 2:59.55 | 211170 | 224649
20 | 49:55.25 | 2:09.38 | 224650 | 234362
21 | 52:04.63 | 2:20.05 | 234363 | 244867
22 | 54:24.68 | 4:26.67 | 244868 | 264884
23 | 58:51.60 | 0:42.00 | 264885 | 268034
24 | 59:33.60 | 1:15.53 | 268035 | 273712
25 | 60:49.38 | 4:35.37 | 273713 | 294374
26 | 65:25.00 | 2:10.25 | 294375 | 304149
27 | 67:35.25 | 0:54.38 | 304150 | 308237
28 | 68:29.63 | 1:54.62 | 308238 | 316849
29 | 70:24.50 | 0:52.00 | 316850 | 320749
30 | 71:16.50 | 2:46.05 | 320750 | 333204
31 | 74:02.55 | 1:33.60 | 333205 | 340239
32 | 75:36.40 | 2:51.23 | 340240 | 353087


Range status and errors

Selected range

Filename C:\ArlegZ\Rossini - Il Turco In Italia - Riccardo Chailly CD1.wav

Peak level 100.0 %
Extraction speed 2.2 X
Range quality 100.0 %
Test CRC 92B3F260
Copy CRC 92B3F260
Copy OK

No errors occurred


AccurateRip summary

Track 1 accurately ripped (confidence 12) [09666190] (AR v2)
Track 2 accurately ripped (confidence 12) [79C082E1] (AR v2)
Track 3 accurately ripped (confidence 12) [BFC86AC0] (AR v2)
Track 4 accurately ripped (confidence 12) [6A26A715] (AR v2)
Track 5 accurately ripped (confidence 12) [8F041D07] (AR v2)
Track 6 accurately ripped (confidence 12) [A42A9407] (AR v2)
Track 7 accurately ripped (confidence 12) [05C6B88C] (AR v2)
Track 8 accurately ripped (confidence 12) [2B2156B7] (AR v2)
Track 9 accurately ripped (confidence 12) [BACED0AA] (AR v2)
Track 10 accurately ripped (confidence 12) [A3D96A09] (AR v2)
Track 11 accurately ripped (confidence 12) [C6F23820] (AR v2)
Track 12 accurately ripped (confidence 12) [26CFD531] (AR v2)
Track 13 accurately ripped (confidence 12) [BE462AEC] (AR v2)
Track 14 accurately ripped (confidence 12) [ED87EF96] (AR v2)
Track 15 accurately ripped (confidence 12) [6237CB5E] (AR v2)
Track 16 accurately ripped (confidence 12) [52E660BF] (AR v2)
Track 17 accurately ripped (confidence 12) [9665B6F2] (AR v2)
Track 18 accurately ripped (confidence 12) [9659EFC5] (AR v2)
Track 19 accurately ripped (confidence 12) [72A61151] (AR v2)
Track 20 accurately ripped (confidence 12) [8929FC43] (AR v2)
Track 21 accurately ripped (confidence 12) [01D74A4F] (AR v2)
Track 22 accurately ripped (confidence 12) [3C4ED2EE] (AR v2)
Track 23 accurately ripped (confidence 12) [F1E13A4D] (AR v2)
Track 24 accurately ripped (confidence 12) [84A1D800] (AR v2)
Track 25 accurately ripped (confidence 12) [FB3704F8] (AR v2)
Track 26 accurately ripped (confidence 12) [2D1BBCAA] (AR v2)
Track 27 accurately ripped (confidence 12) [BE22943C] (AR v2)
Track 28 accurately ripped (confidence 12) [5D6FAC8D] (AR v2)
Track 29 accurately ripped (confidence 12) [B3E209E0] (AR v2)
Track 30 accurately ripped (confidence 12) [E2990BA3] (AR v2)
Track 31 accurately ripped (confidence 12) [4FAD5482] (AR v2)
Track 32 accurately ripped (confidence 12) [FE70C6BD] (AR v2)

All tracks accurately ripped

End of status report

–– CUETools DB Plugin V2.1.6

[CTDB TOCID: NlBtQPoE1bZgOeAKSCO1scDgHmY-] found
Submit result: NlBtQPoE1bZgOeAKSCO1scDgHmY- has been confirmed
Track | CTDB Status
1 | (28/28) Accurately ripped
2 | (28/28) Accurately ripped
3 | (28/28) Accurately ripped
4 | (28/28) Accurately ripped
5 | (28/28) Accurately ripped
6 | (28/28) Accurately ripped
7 | (28/28) Accurately ripped
8 | (28/28) Accurately ripped
9 | (28/28) Accurately ripped
10 | (28/28) Accurately ripped
11 | (28/28) Accurately ripped
12 | (28/28) Accurately ripped
13 | (28/28) Accurately ripped
14 | (28/28) Accurately ripped
15 | (28/28) Accurately ripped
16 | (28/28) Accurately ripped
17 | (28/28) Accurately ripped
18 | (28/28) Accurately ripped
19 | (28/28) Accurately ripped
20 | (28/28) Accurately ripped
21 | (28/28) Accurately ripped
22 | (28/28) Accurately ripped
23 | (28/28) Accurately ripped
24 | (28/28) Accurately ripped
25 | (28/28) Accurately ripped
26 | (28/28) Accurately ripped
27 | (28/28) Accurately ripped
28 | (28/28) Accurately ripped
29 | (28/28) Accurately ripped
30 | (28/28) Accurately ripped
31 | (28/28) Accurately ripped
32 | (28/28) Accurately ripped


==== Log checksum 3ECE2970FCF205ECCA4C7CBEC02B4BEF010CD9DD36B22CA684CB4E88359E457C ====


Exact Audio Copy V1.6 from 23. October 2020

EAC extraction logfile from 15. June 2021, 22:43

Riccardo Chailly, Orchestra del Teatro alla Scala di Milano / Rossini - Il Turco In Italia CD2

Used drive : PIONEER DVD-RW DVR-218L Adapter: 1 ID: 0

Read mode : Secure
Utilize accurate stream : Yes
Defeat audio cache : Yes
Make use of C2 pointers : No

Read offset correction : 6
Overread into Lead-In and Lead-Out : No
Fill up missing offset samples with silence : Yes
Delete leading and trailing silent blocks : No
Null samples used in CRC calculations : Yes
Used interface : Native Win32 interface for Win NT & 2000

Used output format : User Defined Encoder
Selected bitrate : 128 kBit/s
Quality : High
Add ID3 tag : No
Command line compressor : C:\Program Files\Exact Audio Copy\Flac\flac.exe
Additional command line options : -V -8 -T "Date=%year%" -T "Genre=%genre%" %source%


TOC of the extracted CD

Track | Start | Length | Start sector | End sector
––––––––––––––––––––––––––––-
1 | 0:00.25 | 1:13.62 | 25 | 5561
2 | 1:14.12 | 2:53.20 | 5562 | 18556
3 | 4:07.32 | 1:47.18 | 18557 | 26599
4 | 5:54.50 | 2:04.00 | 26600 | 35899
5 | 7:58.50 | 0:30.45 | 35900 | 38194
6 | 8:29.20 | 2:18.32 | 38195 | 48576
7 | 10:47.52 | 2:25.17 | 48577 | 59468
8 | 13:12.69 | 5:48.28 | 59469 | 85596
9 | 19:01.22 | 0:46.33 | 85597 | 89079
10 | 19:47.55 | 0:29.05 | 89080 | 91259
11 | 20:16.60 | 4:59.15 | 91260 | 113699
12 | 25:16.00 | 1:02.62 | 113700 | 118411
13 | 26:18.62 | 2:19.53 | 118412 | 128889
14 | 28:38.40 | 1:44.62 | 128890 | 136751
15 | 30:23.27 | 0:32.18 | 136752 | 139169
16 | 30:55.45 | 3:17.09 | 139170 | 153953
17 | 34:12.54 | 0:31.28 | 153954 | 156306
18 | 34:44.07 | 0:27.47 | 156307 | 158378
19 | 35:11.54 | 0:30.71 | 158379 | 160699
20 | 35:42.50 | 0:28.37 | 160700 | 162836
21 | 36:11.12 | 0:31.30 | 162837 | 165191
22 | 36:42.42 | 0:46.65 | 165192 | 168706
23 | 37:29.32 | 3:46.43 | 168707 | 185699
24 | 41:16.00 | 1:19.10 | 185700 | 191634
25 | 42:35.10 | 2:47.65 | 191635 | 204224
26 | 45:23.00 | 1:31.72 | 204225 | 211121
27 | 46:54.72 | 1:04.15 | 211122 | 215936
28 | 47:59.12 | 1:44.00 | 215937 | 223736
29 | 49:43.12 | 2:42.38 | 223737 | 235924
30 | 52:25.50 | 4:18.62 | 235925 | 255336
31 | 56:44.37 | 1:16.73 | 255337 | 261109
32 | 58:01.35 | 2:17.15 | 261110 | 271399
33 | 60:18.50 | 2:54.25 | 271400 | 284474


Range status and errors

Selected range

Filename C:\ArlegZ\Rossini - Il Turco In Italia - Riccardo Chailly CD2.wav

Peak level 99.8 %
Extraction speed 1.9 X
Range quality 100.0 %
Test CRC A221F0A1
Copy CRC A221F0A1
Copy OK

No errors occurred


AccurateRip summary

Track 1 accurately ripped (confidence 3) [C82553DD] (AR v2)
Track 2 accurately ripped (confidence 3) [E4369BAE] (AR v2)
Track 3 accurately ripped (confidence 3) [79C64964] (AR v2)
Track 4 accurately ripped (confidence 3) [A1F84381] (AR v2)
Track 5 accurately ripped (confidence 3) [4BAF69D4] (AR v2)
Track 6 accurately ripped (confidence 3) [92121AE1] (AR v2)
Track 7 accurately ripped (confidence 3) [BEB29F54] (AR v2)
Track 8 accurately ripped (confidence 3) [0071A5DC] (AR v2)
Track 9 accurately ripped (confidence 3) [52818071] (AR v2)
Track 10 accurately ripped (confidence 3) [F7349C8D] (AR v2)
Track 11 accurately ripped (confidence 3) [5420CAEB] (AR v2)
Track 12 accurately ripped (confidence 3) [48C4D30F] (AR v2)
Track 13 accurately ripped (confidence 3) [815AC689] (AR v2)
Track 14 accurately ripped (confidence 3) [2302EF69] (AR v2)
Track 15 accurately ripped (confidence 3) [9EE55CED] (AR v2)
Track 16 accurately ripped (confidence 3) [70443F3C] (AR v2)
Track 17 accurately ripped (confidence 3) [7BAFB3F8] (AR v2)
Track 18 accurately ripped (confidence 3) [55409CA5] (AR v2)
Track 19 accurately ripped (confidence 3) [D505F3AF] (AR v2)
Track 20 accurately ripped (confidence 3) [424E4FA4] (AR v2)
Track 21 accurately ripped (confidence 3) [7B906742] (AR v2)
Track 22 accurately ripped (confidence 3) [81E39364] (AR v2)
Track 23 accurately ripped (confidence 3) [321FB7CE] (AR v2)
Track 24 accurately ripped (confidence 3) [9B19E556] (AR v2)
Track 25 accurately ripped (confidence 3) [92D96178] (AR v2)
Track 26 accurately ripped (confidence 3) [B10DA5E6] (AR v2)
Track 27 accurately ripped (confidence 3) [0976B8D4] (AR v2)
Track 28 accurately ripped (confidence 3) [39B18741] (AR v2)
Track 29 accurately ripped (confidence 3) [3510DB8A] (AR v2)
Track 30 accurately ripped (confidence 3) [406030B3] (AR v2)
Track 31 accurately ripped (confidence 3) [BEBD7DEA] (AR v2)
Track 32 accurately ripped (confidence 3) [AF55F68C] (AR v2)
Track 33 accurately ripped (confidence 3) [DF8453BA] (AR v2)

All tracks accurately ripped

End of status report

–– CUETools DB Plugin V2.1.6

[CTDB TOCID: 5UMHK3E7EUEhw4huBR04LrRDKXc-] found
Submit result: 5UMHK3E7EUEhw4huBR04LrRDKXc- has been confirmed
Track | CTDB Status
1 | (14/15) Accurately ripped
2 | (14/15) Accurately ripped
3 | (14/15) Accurately ripped
4 | (14/15) Accurately ripped
5 | (14/15) Accurately ripped
6 | (14/15) Accurately ripped
7 | (14/15) Accurately ripped
8 | (14/15) Accurately ripped
9 | (14/15) Accurately ripped
10 | (14/15) Accurately ripped
11 | (14/15) Accurately ripped
12 | (14/15) Accurately ripped
13 | (14/15) Accurately ripped
14 | (14/15) Accurately ripped
15 | (14/15) Accurately ripped
16 | (14/15) Accurately ripped
17 | (14/15) Accurately ripped
18 | (14/15) Accurately ripped
19 | (14/15) Accurately ripped
20 | (14/15) Accurately ripped
21 | (14/15) Accurately ripped
22 | (14/15) Accurately ripped
23 | (14/15) Accurately ripped
24 | (14/15) Accurately ripped
25 | (14/15) Accurately ripped
26 | (14/15) Accurately ripped
27 | (13/15) Accurately ripped, or (1/15) differs in 2 samples @00:00:26
28 | (14/15) Accurately ripped
29 | (14/15) Accurately ripped
30 | (14/15) Accurately ripped
31 | (14/15) Accurately ripped
32 | (14/15) Accurately ripped
33 | (13/15) Accurately ripped, or (1/15) differs in 2 samples @00:00:26


==== Log checksum D01ED95653C42C9CBBBEEC28CB47ADB7F3477909895D99722A8A0FF79235B2D3 ====

Riccardo Chailly, Orchestra e Coro del Teatro alla Scala, Cecilia Bartoli - Rossini: Il Turco in Italia (1998)