Tags
Language
Tags

Riccardo Chailly, Radio-Symphonie-Orchester Berlin - Mahler: Symphony No. 10; Schoenberg: Verklärte Nacht (1987)

Posted By: ArlegZ
Riccardo Chailly, Radio-Symphonie-Orchester Berlin - Mahler: Symphony No. 10; Schoenberg: Verklärte Nacht (1987)

Riccardo Chailly, Radio-Symphonie-Orchester Berlin - Mahler: Symphony No. 10; Schoenberg: Verklärte Nacht (1987)
EAC | FLAC | Image (Cue & Log) ~ 479 Mb | Total time: 42:31+67:02 | Scans included
Classical | Label: Decca | 421 182-2 | Recorded: 1986, 1987

Chailly's Mahler Tenth has certainly withstood the test of time since its original release in 1988. Simon Rattle's new Berlin recording offers perhaps a more highly inflected, characterful performance, but Chailly has both the better playing and sound, and this pays particular dividends in the dark, rich string textures of the opening and closing movements. Both Rattle and Chailly use Deryck Cooke's revised performing version (Chailly sticks to it more literally than does Rattle), and this remains the edition of choice. Recent releases of other completion attempts, including a pretty ghastly one by Remo Mazzetti, only confirm the excellence of Cooke's work. I remain firmly convinced that with a little retouching (the addition of some genuinely Mahlerian percussion parts and a harder, more wind-based sonority in the second movement), we could have an even more authentic Mahler sound while retaining the lion's share of Cooke's achievement. Until someone reissues Wynn Morris' wonderful Philharmonia recording (the best thing that erratic but interesting conductor ever did and now unavailable to Philips due to a licensing problem), Chailly and Rattle offer the best way to go if you're looking for a complete Tenth.
–David Hurwitz

Performer:
Radio-Symphonie-Orchester Berlin
Riccardo Chailly, conductor

Track List:
CD1:
Gustav Mahler (1860-1911)
Symphony No. 10
01. I. Adagio
02. II. Scherzo
03. III. Purgatorio
CD2:
01. IV. Scherzo
02. V. Finale
Arnold Schoenberg (1874-1951)
03. Verklärte Nacht


Exact Audio Copy V1.3 from 2. September 2016

EAC extraction logfile from 15. May 2020, 12:45

Gustav Mahler / Sinfonie No.10 (ed. Deryck Cooke et al. 1976) - RSO Berlin, Riccardo Chailly

Used drive : PLEXTOR DVDR PX-891SA Adapter: 1 ID: 1

Read mode : Secure
Utilize accurate stream : Yes
Defeat audio cache : No
Make use of C2 pointers : No

Combined read/write offset correction : 0
Overread into Lead-In and Lead-Out : No
Fill up missing offset samples with silence : Yes
Delete leading and trailing silent blocks : No
Null samples used in CRC calculations : Yes
Used interface : Native Win32 interface for Win NT & 2000

Used output format : Internal WAV Routines
Sample format : 44.100 Hz; 16 Bit; Stereo


TOC of the extracted CD

Track | Start | Length | Start sector | End sector
––––––––––––––––––––––––––––-
1 | 0:00.32 | 25:54.45 | 32 | 116626
2 | 25:55.02 | 11:53.38 | 116627 | 170139
3 | 37:48.40 | 4:42.47 | 170140 | 191336


Range status and errors

Selected range

Filename D:\Andrea\DOWNLOADS_AUDIO\Gustav Mahler - Sinfonie No.10 (ed. Deryck Cooke et al. 1976) - RSO Berlin, Riccardo Chailly.wav

Peak level 85.6 %
Extraction speed 4.6 X
Range quality 100.0 %
Test CRC F215475C
Copy CRC F215475C
Copy OK

No errors occurred

End of status report

–– CUETools DB Plugin V2.1.6

[CTDB TOCID: p.BRvQakIzowtXzjxmGLQrpuO3Q-] found
Submit result: p.BRvQakIzowtXzjxmGLQrpuO3Q- has been confirmed
Track | CTDB Status
1 | (40/40) Accurately ripped
2 | (40/40) Accurately ripped
3 | (40/40) Accurately ripped



Exact Audio Copy V1.3 from 2. September 2016

EAC extraction logfile from 15. May 2020, 13:12

Chailly, RSO Berlin / 00-Mahler- Symphony No. 10 - Schoenberg- Verklarte Nacht CD2

Used drive : PLEXTOR DVDR PX-891SA Adapter: 1 ID: 1

Read mode : Secure
Utilize accurate stream : Yes
Defeat audio cache : No
Make use of C2 pointers : No

Combined read/write offset correction : 0
Overread into Lead-In and Lead-Out : No
Fill up missing offset samples with silence : Yes
Delete leading and trailing silent blocks : No
Null samples used in CRC calculations : Yes
Used interface : Native Win32 interface for Win NT & 2000

Used output format : Internal WAV Routines
Sample format : 44.100 Hz; 16 Bit; Stereo


TOC of the extracted CD

Track | Start | Length | Start sector | End sector
––––––––––––––––––––––––––––-
1 | 0:00.33 | 11:31.42 | 33 | 51899
2 | 11:32.00 | 25:24.03 | 51900 | 166202
3 | 36:56.03 | 30:05.65 | 166203 | 301642


Range status and errors

Selected range

Filename D:\Andrea\DOWNLOADS_AUDIO\Chailly, RSO Berlin - 00-Mahler- Symphony No. 10 - Schoenberg- Verklarte Nacht CD2.wav

Peak level 85.9 %
Extraction speed 5.7 X
Range quality 100.0 %
Test CRC 3FE36F00
Copy CRC 3FE36F00
Copy OK

No errors occurred

End of status report

–– CUETools DB Plugin V2.1.6

[CTDB TOCID: qJ3pE0P1U296qTONZ1J6ZM2_1Jo-] found
Submit result: qJ3pE0P1U296qTONZ1J6ZM2_1Jo- has been confirmed
Track | CTDB Status
1 | (38/38) Accurately ripped
2 | (38/38) Accurately ripped
3 | (38/38) Accurately ripped


Riccardo Chailly, Radio-Symphonie-Orchester Berlin - Mahler: Symphony No. 10; Schoenberg: Verklärte Nacht (1987)

Thanks to the original releaser