Tags
Language
Tags

Richard Bonynge, Royal Opera Hause, Joan Sutherland, Luciano Pavarotti - Donizetti: La Fille du régiment (2009)

Posted By: ArlegZ
Richard Bonynge, Royal Opera Hause, Joan Sutherland, Luciano Pavarotti - Donizetti: La Fille du régiment (2009)

Richard Bonynge, Orchestra of the Royal Opera Hause, Joan Sutherland, Luciano Pavarotti - Donizetti: La Fille du régiment (2009)
EAC | FLAC | Image (Cue & Log) ~ 502 Mb | Total time: 106:35 | Scans included
Classical | Label: DECCA | # 478 1366 | Recorded: 1967

Recorded in 1967, the recording features Joan Sutherland and Luciano Pavarotti at the high-noon of their careers! Pavarotti, with great charm and humor, tosses off endless high notes in a barnstorming performance. Sutherland easily tackles the great vocal demands and gives an effortlessly stunning performance. No other recording of this opera has come close to surpassing this classic for vocal beauty and sheer thrills!

Performer:
Marie - Joan Sutherland
Tonio - Luciano Pavarotti
La Marquise de Berkenfield - Monica Sinclair
Hortensius - Jules Bruyère
Sulpice - Spiro Malas
Le caporal - Eric Garrett
La duchesse de Crakentorp - Edith Coates
Un paysan - Alan Jones
Un notaire - Omar Gorde
Orchestra and Chorus of the Royal Opera Hause, Covent Garden
Conductor - Richard Bonynge

Track List:
CD1:
01. Ouverture
02. Acte I. L'ennemi s'avance (Villageois)
03. Pour une femme de mon nom (La Marquise)
04. Sacré nom d'une pipe! (Sulpice)
05. Au bruit de la guerre (Marie, Sulpice)
06. Allons, allons, march', march' (Soldats)
07. La la la…Chacun le sait, chacun le dit (Marie)
08. Dès que l'appel sonne (Sulpice, soldats)
09. Ils l'ont emmene brutalement (Marie)
10. Quoi! Vous m'aimez? (Marie)
11. Rataplan, rataplan, rataplan (Le Caporal, soldats)
12. Ah! Mes amis, quel jour de fête! (Tonio)
13. Le camarade est amoureux! (Le Caporal)
14. Je suis soldat (Tonio)
CD2:
01. Entr'acte
02. Acte II. La romance perdue, on l'a retrouvée (La Marquise)
03. Le jour naissait dans le bocage (Marie)
04. C'en est donc fait (Marie)
05. Tous les trois réunis (Marie, Tonio, Sulpice)
06. Ecoutez - moi, de grâce! (Tonio)
07. Ah! c'est elle! (La Marquise)
08. Oui! Quand le destin, au milieu de la guerre (Marie)


Exact Audio Copy V1.6 from 23. October 2020

EAC extraction logfile from 26. May 2021, 20:53

Richard Bonynge, Orchestra of the Royal Opera Hause / Donizetti - La Fille du régiment CD1

Used drive : PIONEER DVD-RW DVR-218L Adapter: 1 ID: 0

Read mode : Secure
Utilize accurate stream : Yes
Defeat audio cache : Yes
Make use of C2 pointers : No

Read offset correction : 6
Overread into Lead-In and Lead-Out : No
Fill up missing offset samples with silence : Yes
Delete leading and trailing silent blocks : No
Null samples used in CRC calculations : Yes
Used interface : Native Win32 interface for Win NT & 2000

Used output format : User Defined Encoder
Selected bitrate : 128 kBit/s
Quality : High
Add ID3 tag : No
Command line compressor : C:\Program Files\Exact Audio Copy\Flac\flac.exe
Additional command line options : -V -8 -T "Date=%year%" -T "Genre=%genre%" %source%


TOC of the extracted CD

Track | Start | Length | Start sector | End sector
––––––––––––––––––––––––––––-
1 | 0:00.00 | 6:44.56 | 0 | 30355
2 | 6:44.56 | 3:29.27 | 30356 | 46057
3 | 10:14.08 | 5:03.57 | 46058 | 68839
4 | 15:17.65 | 2:10.59 | 68840 | 78648
5 | 17:28.49 | 7:11.35 | 78649 | 111008
6 | 24:40.09 | 3:54.53 | 111009 | 128611
7 | 28:34.62 | 4:07.62 | 128612 | 147198
8 | 32:42.49 | 2:30.52 | 147199 | 158500
9 | 35:13.26 | 2:08.23 | 158501 | 168123
10 | 37:21.49 | 10:05.31 | 168124 | 213529
11 | 47:27.05 | 2:06.58 | 213530 | 223037
12 | 49:33.63 | 1:44.17 | 223038 | 230854
13 | 51:18.05 | 5:05.48 | 230855 | 253777
14 | 56:23.53 | 10:25.51 | 253778 | 300703


Range status and errors

Selected range

Filename C:\ArlegZ\Donizetti - La Fille du regiment - Richard Bonynge CD1.wav

Peak level 96.9 %
Extraction speed 2.1 X
Range quality 100.0 %
Test CRC DB635966
Copy CRC DB635966
Copy OK

No errors occurred


AccurateRip summary

Track 1 accurately ripped (confidence 31) [FBE1389B] (AR v2)
Track 2 accurately ripped (confidence 31) [B2BBD3DC] (AR v2)
Track 3 accurately ripped (confidence 31) [82097149] (AR v2)
Track 4 accurately ripped (confidence 31) [5394D3D8] (AR v2)
Track 5 accurately ripped (confidence 31) [C645E85E] (AR v2)
Track 6 accurately ripped (confidence 31) [66667AA7] (AR v2)
Track 7 accurately ripped (confidence 31) [57F0B748] (AR v2)
Track 8 accurately ripped (confidence 31) [3DFAF138] (AR v2)
Track 9 accurately ripped (confidence 31) [0852D40C] (AR v2)
Track 10 accurately ripped (confidence 31) [BF749F17] (AR v2)
Track 11 accurately ripped (confidence 31) [EC16D5C9] (AR v2)
Track 12 accurately ripped (confidence 31) [933A724A] (AR v2)
Track 13 accurately ripped (confidence 32) [883D3978] (AR v2)
Track 14 accurately ripped (confidence 31) [6336FB5A] (AR v2)

All tracks accurately ripped

End of status report

–– CUETools DB Plugin V2.1.6

[CTDB TOCID: ijvGCxKTTgOAoHvhQMszDnDJSZY-] found
Submit result: ijvGCxKTTgOAoHvhQMszDnDJSZY- has been confirmed
Track | CTDB Status
1 | (76/77) Accurately ripped
2 | (77/77) Accurately ripped
3 | (77/77) Accurately ripped
4 | (77/77) Accurately ripped
5 | (77/77) Accurately ripped
6 | (77/77) Accurately ripped
7 | (77/77) Accurately ripped
8 | (77/77) Accurately ripped
9 | (77/77) Accurately ripped
10 | (77/77) Accurately ripped
11 | (77/77) Accurately ripped
12 | (77/77) Accurately ripped
13 | (77/77) Accurately ripped
14 | (77/77) Accurately ripped


==== Log checksum 2225C8FA6807F2F1BF3903344100ACDB34C65E575EFD35D00AA83101BBB383D0 ====


Exact Audio Copy V1.6 from 23. October 2020

EAC extraction logfile from 26. May 2021, 21:45

Richard Bonynge, Orchestra of the Royal Opera Hause / Donizetti - La Fille du régiment CD3

Used drive : PIONEER DVD-RW DVR-218L Adapter: 1 ID: 0

Read mode : Secure
Utilize accurate stream : Yes
Defeat audio cache : Yes
Make use of C2 pointers : No

Read offset correction : 6
Overread into Lead-In and Lead-Out : No
Fill up missing offset samples with silence : Yes
Delete leading and trailing silent blocks : No
Null samples used in CRC calculations : Yes
Used interface : Native Win32 interface for Win NT & 2000

Used output format : User Defined Encoder
Selected bitrate : 128 kBit/s
Quality : High
Add ID3 tag : No
Command line compressor : C:\Program Files\Exact Audio Copy\Flac\flac.exe
Additional command line options : -V -8 -T "Date=%year%" -T "Genre=%genre%" %source%


TOC of the extracted CD

Track | Start | Length | Start sector | End sector
––––––––––––––––––––––––––––-
1 | 0:00.00 | 2:38.33 | 0 | 11882
2 | 2:38.33 | 1:39.72 | 11883 | 19379
3 | 4:18.30 | 8:57.50 | 19380 | 59704
4 | 13:16.05 | 10:12.72 | 59705 | 105676
5 | 23:29.02 | 3:00.32 | 105677 | 119208
6 | 26:29.34 | 6:56.21 | 119209 | 150429
7 | 33:25.55 | 2:05.11 | 150430 | 159815
8 | 35:30.66 | 4:09.30 | 159816 | 178520


Range status and errors

Selected range

Filename C:\ArlegZ\Donizetti - La Fille du regiment - Richard Bonynge CD2.wav

Peak level 94.7 %
Extraction speed 1.7 X
Range quality 100.0 %
Test CRC 4C2CAC9E
Copy CRC 4C2CAC9E
Copy OK

No errors occurred


AccurateRip summary

Track 1 accurately ripped (confidence 31) [2646AD5D] (AR v2)
Track 2 accurately ripped (confidence 31) [270EA526] (AR v2)
Track 3 accurately ripped (confidence 31) [D1A0F6A6] (AR v2)
Track 4 accurately ripped (confidence 31) [BDBD1583] (AR v2)
Track 5 accurately ripped (confidence 31) [DFBB4CC5] (AR v2)
Track 6 accurately ripped (confidence 31) [4270F087] (AR v2)
Track 7 accurately ripped (confidence 31) [40167289] (AR v2)
Track 8 accurately ripped (confidence 31) [94000261] (AR v2)

All tracks accurately ripped

End of status report

–– CUETools DB Plugin V2.1.6

[CTDB TOCID: LFVVfsmLo2xdP4gS_t89AoiHhZU-] found
Submit result: LFVVfsmLo2xdP4gS_t89AoiHhZU- has been confirmed
Track | CTDB Status
1 | (79/80) Accurately ripped
2 | (80/80) Accurately ripped
3 | (80/80) Accurately ripped
4 | (80/80) Accurately ripped
5 | (80/80) Accurately ripped
6 | (80/80) Accurately ripped
7 | (80/80) Accurately ripped
8 | (80/80) Accurately ripped


==== Log checksum E6707E668830AC63852FB2BAE306182E7E06CF903E0B7E7C3097133E2CE5CB19 ====

Richard Bonynge, Royal Opera Hause, Joan Sutherland, Luciano Pavarotti - Donizetti: La Fille du régiment (2009)