Tags
Language
Tags

Richard Bonynge, London Symphony Orchestra, Joan Sutherland, Marilyn Horne - Bellini: Norma (2002)

Posted By: ArlegZ
Richard Bonynge, London Symphony Orchestra, Joan Sutherland, Marilyn Horne - Bellini: Norma (2002)

Richard Bonynge, London Symphony Orchestra, Joan Sutherland, Marilyn Horne - Bellini: Norma (2002)
EAC | FLAC | Image (Cue & Log) ~ 783 Mb | Total time: 62:17+30:43+69:10 | Scans included
Classical | Label: DECCA | # 470 413-2 | Recorded: 1964

I believe this is the only note-complete performance of this opera, and furthermore, the only one that is sung in all of the original keys (in almost every other recording "Casta diva" and the duets are transposed down). It is a spectacular example of bel canto. Recorded in 1964, Joan Sutherland was at her peak, exhibiting fearless, beautiful singing, thoroughly accurate in fiorature and breath control.
Marilyn Horne is a spectacular Adalgisa, her tone and technique stunning, her word painting sincere and telling, and her legendary blending with Sutherland nowhere more remarkable. John Alexander was a fine tenor and he presents a strong Pollione, but he never sounds Italian and the music suffers. Richard Cross is too light for Oroveso's pronouncements, but Yvonne Minton is a fine Clotilde. Richard Bonynge's leadership at this stage of his career consisted of listening to and following his wife; he gets little tension from the score but it's played well. Fans of Sutherland and Horne must own this–perhaps everyone should, just to hear how the music is supposed to sound–but opera lovers will need a Callas performance first and foremost.
–Robert Levine

Performer:
Norma – Joan Sutherland
Pollione – John Alexander
Adalgisa – Marilyn Horne
Oroveso – Richard Cross
Clotilde – Yvonne Minton
Flavio – Joseph Ward
London Symphony Orchestra and Chorus
Conductor – Richard Bonynge

Track List:
CD1:
01. Sinfonia
02. Atto I. Introduzione: Ite sul colle, o Druidi (Oroveso, Druidi)
03. Svanir le voci! (Pollione, Flavio)
04. Meco all'altar di Venere era Adalgisa in Roma (Pollione, Flavio, Druidi)
05. Me protegge, me difende un poter maggior di loro (Pollione, Flavio, Druidi)
06. Norma viene(Druidi, Sacerdotesse, Guerrieri)
07. Sediziose voci, voci di guerra (Norma, Oroveso, Druidi, Guerrieri)
08. Casta Diva, che inargenti queste sacre antiche piante (Norma, Oroveso, Druidi, Sacerdotesse, Guerrieri)
09. Fine al rito (Norma, Oroveso, Druidi, Sacerdotesse, Guerrieri)
10. Ah! bello a me ritorna del fido amor primiero (Norma, Oroveso, Druidi, Sacerdotesse, Guerrieri)
11. Sgombra è la sacra selva, compiuto il rito (Adalgisa)
12. Deh! proteggimi, o Dio! (Adalgisa)
13. Eccola! va', mi lascia, ragion non odo (Pollione, Adalgisa)
14. Va', crudele, al Dio spietato offri in dono il sangue mio (Pollione, Adalgisa)
CD2:
01. Vanne, e li cela entrambi (Norma, Clotilde)
02. Adalgisa! – Alma, costanza (Norma, Adalgisa)
03. Oh! rimembranza! (Norma, Adalgisa)
04. Ah! si, fa core, abbracciami (Norma, Adalgisa)
05. Ma di'… l'amato quale fra noi si noma? (Norma, Adalgisa, Pollione)
06. Oh non tremare, o perfido (Norma, Adalgisa)
07. Oh! di qual sei tu vittima (Norma)
08. Oh! qual traspare orribile (Adalgisa, Norma)
09. Norma! de'tuoi rimproveri segno non farmi adesso (Pollione, Norma, Adalgisa)
10. Perfido! - Or basti (Norma, Pollione, Adalgisa)
11. Vanne, si: mi lascia, indegno (Norma, Adalgisa, Pollione, Druidi, Sacerdotesse)
CD3:
01. Atto II. Introduzione
02. Dormono entrambi… non vedran la mano che li percuote (Norma, Clotilde)
03. Mi chiami, o Norma! (Adalgisa, Norma)
04. Deh! con te, con te li prendi (Norma, Adalgisa)
05. Mira, o Norma, a' tuoi ginocchi questi cari tuoi pargoletti (Adalgisa, Norma)
06. Si, fino all'ore estreme compagna tua m'avrai (Norma, Adalgisa)
07. Non parti? (Guerrieri)
08. Guerrieri! a voi venirne credea foriero d'avvenir migliore (Oroveso, Guerrieri)
09. Ei tornerà (Norma, Clotilde)
10. Squilla il bronzo del Dio! (Druidi, Sacerdotesse, Oroveso, Norma)
11. Guerra, guerra! (Norma, Oroveso, Druidi, Sacerdotesse)
12. Né compi il rito, o Norma? né la vittima accenni? (Oroveso, Norma, Clotilde, Pollione, Druidi, Sacerdotesse)
13. In mia man alfin tu sei (Norma, Pollione)
14. Già mi pasco ne'tuoi sguardi (Norma, Pollione)
15. Dammi quel ferro - Che osi? Scostati (Pollione, Norma, Oroveso, Druidi, Sacerdotesse)
16. Qual cor tradisti, qual cor perdesti quest'ora orrenda ti manifesti (Norma, Pollione, Oroveso, Druidi, Sacerdotesse)
17. Norma! deh! Norma, scolpati! (Oroveso, Druidi, Sacerdotesse, Norma, Pollione)
18. Deh! non volerli vittime del mio fatale errore (Norma, Pollione, Oroveso, Druidi, Sacerdotesse)


Exact Audio Copy V1.5 from 20. February 2020

EAC extraction logfile from 15. February 2021, 13:27

Richard Bonynge, London Symphony Orchestra / Bellini - Norma CD1

Used drive : HL-DT-STDVDRAM GH24NS95 Adapter: 1 ID: 0

Read mode : Secure
Utilize accurate stream : Yes
Defeat audio cache : Yes
Make use of C2 pointers : No

Read offset correction : 6
Overread into Lead-In and Lead-Out : No
Fill up missing offset samples with silence : Yes
Delete leading and trailing silent blocks : No
Null samples used in CRC calculations : Yes
Used interface : Native Win32 interface for Win NT & 2000

Used output format : User Defined Encoder
Selected bitrate : 128 kBit/s
Quality : High
Add ID3 tag : No
Command line compressor : C:\Program Files\Exact Audio Copy\Flac\flac.exe
Additional command line options : -V -8 -T "Date=%year%" -T "Genre=%genre%" %source%


TOC of the extracted CD

Track | Start | Length | Start sector | End sector
––––––––––––––––––––––––––––-
1 | 0:00.00 | 6:31.05 | 0 | 29329
2 | 6:31.05 | 7:49.15 | 29330 | 64519
3 | 14:20.20 | 2:46.44 | 64520 | 77013
4 | 17:06.64 | 4:21.51 | 77014 | 96639
5 | 21:28.40 | 2:44.47 | 96640 | 108986
6 | 24:13.12 | 4:11.60 | 108987 | 127871
7 | 28:24.72 | 4:20.18 | 127872 | 147389
8 | 32:45.15 | 6:29.45 | 147390 | 176609
9 | 39:14.60 | 1:36.15 | 176610 | 183824
10 | 40:51.00 | 4:30.45 | 183825 | 204119
11 | 45:21.45 | 4:08.02 | 204120 | 222721
12 | 49:29.47 | 2:12.43 | 222722 | 232664
13 | 51:42.15 | 1:37.50 | 232665 | 239989
14 | 53:19.65 | 8:57.52 | 239990 | 280316
15 | 64:49.42 | 5:44.31 | 291717 | 317547


Range status and errors

Selected range

Filename C:\ArlegZ\Bellini - Norma - Richard Bonynge CD1.wav

Peak level 95.7 %
Extraction speed 2.0 X
Range quality 100.0 %
Test CRC F8C78426
Copy CRC F8C78426
Copy OK

No errors occurred


AccurateRip summary

Track 1 accurately ripped (confidence 19) [45685933] (AR v2)
Track 2 accurately ripped (confidence 19) [5F694CEA] (AR v2)
Track 3 accurately ripped (confidence 19) [D834CB2D] (AR v2)
Track 4 accurately ripped (confidence 19) [5596C880] (AR v2)
Track 5 accurately ripped (confidence 19) [CE5C6C46] (AR v2)
Track 6 accurately ripped (confidence 19) [4FA201C8] (AR v2)
Track 7 accurately ripped (confidence 19) [0EBE5F65] (AR v2)
Track 8 accurately ripped (confidence 19) [842BA61E] (AR v2)
Track 9 accurately ripped (confidence 19) [E0C1A176] (AR v2)
Track 10 accurately ripped (confidence 19) [6A7C87DF] (AR v2)
Track 11 accurately ripped (confidence 19) [B84EFFDE] (AR v2)
Track 12 accurately ripped (confidence 19) [A63A12E2] (AR v2)
Track 13 accurately ripped (confidence 19) [1A5C51CA] (AR v2)
Track 14 accurately ripped (confidence 19) [34FFEB63] (AR v2)

All tracks accurately ripped

End of status report

–– CUETools DB Plugin V2.1.6

[CTDB TOCID: 8W7rZSrA7xz5MX5HL6.HkTc4ugY-] found
Submit result: 8W7rZSrA7xz5MX5HL6.HkTc4ugY- has been confirmed
Track | CTDB Status
1 | (50/50) Accurately ripped
2 | (50/50) Accurately ripped
3 | (50/50) Accurately ripped
4 | (50/50) Accurately ripped
5 | (50/50) Accurately ripped
6 | (50/50) Accurately ripped
7 | (50/50) Accurately ripped
8 | (50/50) Accurately ripped
9 | (50/50) Accurately ripped
10 | (50/50) Accurately ripped
11 | (50/50) Accurately ripped
12 | (50/50) Accurately ripped
13 | (50/50) Accurately ripped
14 | (50/50) Accurately ripped


==== Log checksum 202F0507415E7F6E328ECC55E56459D8C3CAE9963CB15599D4EF85AB9E9B7A09 ====


Exact Audio Copy V1.5 from 20. February 2020

EAC extraction logfile from 15. February 2021, 12:44

Richard Bonynge, London Symphony Orchestra / Bellini - Norma CD2

Used drive : HL-DT-STDVDRAM GH24NS95 Adapter: 1 ID: 0

Read mode : Secure
Utilize accurate stream : Yes
Defeat audio cache : Yes
Make use of C2 pointers : No

Read offset correction : 6
Overread into Lead-In and Lead-Out : No
Fill up missing offset samples with silence : Yes
Delete leading and trailing silent blocks : No
Null samples used in CRC calculations : Yes
Used interface : Native Win32 interface for Win NT & 2000

Used output format : User Defined Encoder
Selected bitrate : 128 kBit/s
Quality : High
Add ID3 tag : No
Command line compressor : C:\Program Files\Exact Audio Copy\Flac\flac.exe
Additional command line options : -V -8 -T "Date=%year%" -T "Genre=%genre%" %source%


TOC of the extracted CD

Track | Start | Length | Start sector | End sector
––––––––––––––––––––––––––––-
1 | 0:00.32 | 4:24.23 | 32 | 19854
2 | 4:24.55 | 3:56.20 | 19855 | 37574
3 | 8:21.00 | 4:50.60 | 37575 | 59384
4 | 13:11.60 | 4:16.15 | 59385 | 78599
5 | 17:28.00 | 1:30.45 | 78600 | 85394
6 | 18:58.45 | 1:40.25 | 85395 | 92919
7 | 20:38.70 | 1:23.27 | 92920 | 99171
8 | 22:02.22 | 1:20.45 | 99172 | 105216
9 | 23:22.67 | 3:04.33 | 105217 | 119049
10 | 26:27.25 | 1:23.10 | 119050 | 125284
11 | 27:50.35 | 2:53.45 | 125285 | 138304


Range status and errors

Selected range

Filename C:\ArlegZ\Bellini - Norma - Richard Bonynge CD2.wav

Peak level 91.6 %
Extraction speed 1.5 X
Range quality 100.0 %
Test CRC F118410E
Copy CRC F118410E
Copy OK

No errors occurred


AccurateRip summary

Track 1 accurately ripped (confidence 8) [2C8C8AFE] (AR v2)
Track 2 accurately ripped (confidence 8) [E88265C3] (AR v2)
Track 3 accurately ripped (confidence 8) [B628D85E] (AR v2)
Track 4 accurately ripped (confidence 8) [C1ADE782] (AR v2)
Track 5 accurately ripped (confidence 8) [F8AB74D6] (AR v2)
Track 6 accurately ripped (confidence 8) [46872297] (AR v2)
Track 7 accurately ripped (confidence 8) [7EF92477] (AR v2)
Track 8 accurately ripped (confidence 8) [D800DE9F] (AR v2)
Track 9 accurately ripped (confidence 8) [08793E2E] (AR v2)
Track 10 accurately ripped (confidence 8) [A7791830] (AR v2)
Track 11 accurately ripped (confidence 8) [68AD3FBD] (AR v2)

All tracks accurately ripped

End of status report

–– CUETools DB Plugin V2.1.6

[CTDB TOCID: vTUThQiML03sKYuo.f14CJlh_vY-] found
Submit result: vTUThQiML03sKYuo.f14CJlh_vY- has been confirmed
Track | CTDB Status
1 | (102/104) Accurately ripped
2 | (103/104) Accurately ripped
3 | (103/104) Accurately ripped
4 | (103/104) Accurately ripped
5 | (103/104) Accurately ripped
6 | (104/104) Accurately ripped
7 | (103/104) Accurately ripped
8 | (102/104) Accurately ripped, or (2/104) differs in 773 samples @00:49:71
9 | (103/104) Accurately ripped
10 | (104/104) Accurately ripped
11 | (103/104) Accurately ripped


==== Log checksum 6894ABD72AF0AFF2A170CA27F475A18C67949833B051580FAA243008BDADA3FD ====


Exact Audio Copy V1.5 from 20. February 2020

EAC extraction logfile from 15. February 2021, 14:44

Richard Bonynge, London Symphony Orchestra / Bellini - Norma CD3

Used drive : HL-DT-STDVDRAM GH24NS95 Adapter: 1 ID: 0

Read mode : Secure
Utilize accurate stream : Yes
Defeat audio cache : Yes
Make use of C2 pointers : No

Read offset correction : 6
Overread into Lead-In and Lead-Out : No
Fill up missing offset samples with silence : Yes
Delete leading and trailing silent blocks : No
Null samples used in CRC calculations : Yes
Used interface : Native Win32 interface for Win NT & 2000

Used output format : User Defined Encoder
Selected bitrate : 128 kBit/s
Quality : High
Add ID3 tag : No
Command line compressor : C:\Program Files\Exact Audio Copy\Flac\flac.exe
Additional command line options : -V -8 -T "Date=%year%" -T "Genre=%genre%" %source%


TOC of the extracted CD

Track | Start | Length | Start sector | End sector
––––––––––––––––––––––––––––-
1 | 0:00.32 | 3:48.00 | 32 | 17131
2 | 3:48.32 | 5:17.55 | 17132 | 40961
3 | 9:06.12 | 2:36.53 | 40962 | 52714
4 | 11:42.65 | 3:56.02 | 52715 | 70416
5 | 15:38.67 | 5:38.38 | 70417 | 95804
6 | 21:17.30 | 2:14.07 | 95805 | 105861
7 | 23:31.37 | 4:15.50 | 105862 | 125036
8 | 27:47.12 | 4:06.55 | 125037 | 143541
9 | 31:53.67 | 4:34.03 | 143542 | 164094
10 | 36:27.70 | 1:32.72 | 164095 | 171066
11 | 38:00.67 | 3:28.23 | 171067 | 186689
12 | 41:29.15 | 3:48.27 | 186690 | 203816
13 | 45:17.42 | 5:31.40 | 203817 | 228681
14 | 50:49.07 | 2:33.03 | 228682 | 240159
15 | 53:22.10 | 3:21.15 | 240160 | 255249
16 | 56:43.25 | 5:21.62 | 255250 | 279386
17 | 62:05.12 | 2:28.25 | 279387 | 290511
18 | 64:33.37 | 4:37.13 | 290512 | 311299


Range status and errors

Selected range

Filename C:\ArlegZ\Bellini - Norma - Richard Bonynge CD3.wav

Peak level 97.5 %
Extraction speed 2.0 X
Range quality 99.9 %
Test CRC 54313519
Copy CRC 54313519
Copy OK

No errors occurred


AccurateRip summary

Track 1 accurately ripped (confidence 9) [0EA79B7D] (AR v2)
Track 2 accurately ripped (confidence 9) [7033C21A] (AR v2)
Track 3 accurately ripped (confidence 9) [2E6F27A3] (AR v2)
Track 4 accurately ripped (confidence 9) [25E6845D] (AR v2)
Track 5 accurately ripped (confidence 9) [3C627484] (AR v2)
Track 6 accurately ripped (confidence 9) [BC0D76F6] (AR v2)
Track 7 accurately ripped (confidence 9) [69D7AB0F] (AR v2)
Track 8 accurately ripped (confidence 9) [B8EBA04A] (AR v2)
Track 9 accurately ripped (confidence 9) [2A1D01CC] (AR v2)
Track 10 accurately ripped (confidence 9) [D782B00E] (AR v2)
Track 11 accurately ripped (confidence 9) [A7AD9712] (AR v2)
Track 12 accurately ripped (confidence 9) [237E7BE3] (AR v2)
Track 13 accurately ripped (confidence 9) [BD77999F] (AR v2)
Track 14 accurately ripped (confidence 9) [C2B7F3A2] (AR v2)
Track 15 accurately ripped (confidence 9) [B03164AF] (AR v2)
Track 16 accurately ripped (confidence 9) [4F0AE8FB] (AR v2)
Track 17 accurately ripped (confidence 9) [C2369C55] (AR v2)
Track 18 accurately ripped (confidence 9) [71BA1849] (AR v2)

All tracks accurately ripped

End of status report

–– CUETools DB Plugin V2.1.6

[CTDB TOCID: o7ykdxs80.qyjMG5m_OOK7J3RO0-] found
Submit result: o7ykdxs80.qyjMG5m_OOK7J3RO0- has been confirmed
Track | CTDB Status
1 | (88/88) Accurately ripped
2 | (88/88) Accurately ripped
3 | (87/88) Accurately ripped, or (1/88) differs in 39978 samples @00:13:13-00:13:47
4 | (88/88) Accurately ripped
5 | (88/88) Accurately ripped
6 | (88/88) Accurately ripped
7 | (87/88) Accurately ripped
8 | (88/88) Accurately ripped
9 | (88/88) Accurately ripped
10 | (87/88) Accurately ripped
11 | (88/88) Accurately ripped
12 | (88/88) Accurately ripped
13 | (87/88) Accurately ripped
14 | (88/88) Accurately ripped
15 | (88/88) Accurately ripped
16 | (88/88) Accurately ripped
17 | (88/88) Accurately ripped
18 | (88/88) Accurately ripped


==== Log checksum 1772ED09AE34F47603EAE6D1F7D0F23815DB568C1CCE4C461BEBDE5D63A20595 ====

Richard Bonynge, London Symphony Orchestra, Joan Sutherland, Marilyn Horne - Bellini: Norma (2002)