Tags
Language
Tags

Richard Bonynge, London Symphony Orchestra, Joan Sutherland, Luciano Pavarotti - Bellini: I Puritani (1987)

Posted By: ArlegZ
Richard Bonynge, London Symphony Orchestra, Joan Sutherland, Luciano Pavarotti - Bellini: I Puritani (1987)

Richard Bonynge, London Symphony Orchestra, Joan Sutherland, Luciano Pavarotti - Bellini: I Puritani (1987)
EAC | FLAC | Image (Cue & Log) ~ 794 Mb | Total time: 174:09 | Scans included
Classical | Label: Decca | 417 588-2 | Recorded: 1975

Sutherland's singing here is brighter and fresher than her earlier recording, with the lovely aria 'Qui la voce' no longer a wordless melisma…The recording is vivid and atmospheric and one marvels at Bellini's gorgeous melodies…with Sutherland, Bonynge and all on electrifying form.
–The Penguin Guide

Performer:
Lord Gualtiero Valton - Gian Carlo Luccardi
Elvira - Joan Sutherland
Sir Giorgio - Nicolai Ghiaurov
Lord Arturo Talbo - Luciano Pavarotti
Sir Riccardo Forth - Piero Cappuccilli
Sir Bruno Roberton - Renato Cazzaniga
Enrichetta di Francia - Anita Caminada
Chorus of the Royal Opera House, Covent Garden
London Symphony Orchestra
Conductor - Richard Bonynge

Track List:
CD1:
01. Atto I. All'erta! All'erta! L'alba apar (Bruno, Sentinelle)
02. O di Cromwell guerrieri (Bruno)
03. Or dove fuggo mai? (Riccardo)
04. Ah! per sempre io ti perdei (Riccardo)
05. O amato zio, o mio secondo padre! (Elvira)
06. Sai com' arde in petto mio (Elvira)
07. Ad Arturo onore (Castellani, Castellane)
08. A te, o cara (Arturo)
09. Il rito augusto si compia senza me (Valton)
10. Son vergin vezzosa (Elvira)
11. Ferma! Invan, invan rapir pretendi (Riccardo)
CD2:
01. Atto II. Dov'è Arturo (Elvira)
02. Ma tu già mi fuggi? (Elvira)
03. Ah dolor! Ah terror! (Castellani, Castellane)
04. Cinta di fiori (Giorgio)
05. E di morte lo stral non sarà lento (Riccardo)
06. O rendetemi la speme (Elvira)
07. Vien, diletto, è in ciel la luna! (Elvira)
08. Il rival salvar tu dêi (Giorgio)
CD3:
01. Atto III. Son salvo, alfin son salvo (Arturo)
02. A una fonte affitto e solo (Elvira)
03. Finì… me lassa! (Elvira)
04. Vieni, vieni fra queste braccia (Arturo)
05. Ancor s'ascolta questa suon molesto (Arturo)
06. Credeasi, misera! (Arturo)
07. Suon d'araldi? (Castellani, Castellane)


Exact Audio Copy V1.5 from 20. February 2020

EAC extraction logfile from 8. June 2020, 12:19

Richard Bonynge, Sutherland, Pavarotti, Cappuccilli, Ghiaurov / Bellini - I Puritani CD1

Used drive : PIONEER DVD-RW DVR-218L Adapter: 1 ID: 1

Read mode : Secure
Utilize accurate stream : Yes
Defeat audio cache : Yes
Make use of C2 pointers : No

Read offset correction : 6
Overread into Lead-In and Lead-Out : No
Fill up missing offset samples with silence : Yes
Delete leading and trailing silent blocks : No
Null samples used in CRC calculations : Yes
Used interface : Native Win32 interface for Win NT & 2000

Used output format : User Defined Encoder
Selected bitrate : 128 kBit/s
Quality : High
Add ID3 tag : No
Command line compressor : C:\Program Files\Exact Audio Copy\Flac\flac.exe
Additional command line options : -V -8 -T "Date=%year%" -T "Genre=%genre%" %source%


TOC of the extracted CD

Track | Start | Length | Start sector | End sector
––––––––––––––––––––––––––––-
1 | 0:00.32 | 8:42.43 | 32 | 39224
2 | 8:43.00 | 6:16.40 | 39225 | 67464
3 | 14:59.40 | 3:03.62 | 67465 | 81251
4 | 18:03.27 | 7:58.48 | 81252 | 117149
5 | 26:02.00 | 2:02.32 | 117150 | 126331
6 | 28:04.32 | 10:52.33 | 126332 | 175264
7 | 38:56.65 | 3:39.32 | 175265 | 191721
8 | 42:36.22 | 5:46.13 | 191722 | 217684
9 | 48:22.35 | 7:38.25 | 217685 | 252059
10 | 56:00.60 | 5:34.45 | 252060 | 277154
11 | 61:35.30 | 5:50.00 | 277155 | 303404


Range status and errors

Selected range

Filename C:\ArlegZ\Bellini - I Puritani CD1.wav

Peak level 96.6 %
Extraction speed 1.9 X
Range quality 99.9 %
Test CRC A541C9D3
Copy CRC A541C9D3
Copy OK

No errors occurred


AccurateRip summary

Track 1 accurately ripped (confidence 9) [54579AAB] (AR v2)
Track 2 accurately ripped (confidence 9) [F81CB52E] (AR v2)
Track 3 accurately ripped (confidence 9) [6BA47371] (AR v2)
Track 4 accurately ripped (confidence 8) [A350782F] (AR v2)
Track 5 accurately ripped (confidence 8) [EED2F967] (AR v2)
Track 6 accurately ripped (confidence 8) [33B26F0F] (AR v2)
Track 7 accurately ripped (confidence 8) [6A86DCE1] (AR v2)
Track 8 accurately ripped (confidence 8) [2B200878] (AR v2)
Track 9 accurately ripped (confidence 9) [70FFD0ED] (AR v2)
Track 10 accurately ripped (confidence 9) [4C0265CD] (AR v2)
Track 11 accurately ripped (confidence 9) [4503162A] (AR v2)

All tracks accurately ripped

End of status report

–– CUETools DB Plugin V2.1.6

[CTDB TOCID: 8hyKmDJjs3yXwz6B3MFS4prINT0-] found
Submit result: 8hyKmDJjs3yXwz6B3MFS4prINT0- has been confirmed
Track | CTDB Status
1 | (82/82) Accurately ripped
2 | (82/82) Accurately ripped
3 | (82/82) Accurately ripped
4 | (82/82) Accurately ripped
5 | (82/82) Accurately ripped
6 | (80/82) Accurately ripped
7 | (82/82) Accurately ripped
8 | (82/82) Accurately ripped
9 | (81/82) Accurately ripped
10 | (82/82) Accurately ripped
11 | (82/82) Accurately ripped


==== Log checksum 906615E41867C70EE2A6AD58147FE49B56D1A669D1F647CD78F5C6C164CBF164 ====


Exact Audio Copy V1.5 from 20. February 2020

EAC extraction logfile from 8. June 2020, 13:27

Richard Bonynge, Sutherland, Pavarotti, Cappuccilli, Ghiaurov / Bellini - I Puritani CD2

Used drive : PIONEER DVD-RW DVR-218L Adapter: 1 ID: 1

Read mode : Secure
Utilize accurate stream : Yes
Defeat audio cache : Yes
Make use of C2 pointers : No

Read offset correction : 6
Overread into Lead-In and Lead-Out : No
Fill up missing offset samples with silence : Yes
Delete leading and trailing silent blocks : No
Null samples used in CRC calculations : Yes
Used interface : Native Win32 interface for Win NT & 2000

Used output format : User Defined Encoder
Selected bitrate : 128 kBit/s
Quality : High
Add ID3 tag : No
Command line compressor : C:\Program Files\Exact Audio Copy\Flac\flac.exe
Additional command line options : -V -8 -T "Date=%year%" -T "Genre=%genre%" %source%


TOC of the extracted CD

Track | Start | Length | Start sector | End sector
––––––––––––––––––––––––––––-
1 | 0:00.32 | 8:46.25 | 32 | 39506
2 | 8:46.57 | 3:55.25 | 39507 | 57156
3 | 12:42.07 | 8:23.00 | 57157 | 94881
4 | 21:05.07 | 5:01.10 | 94882 | 117466
5 | 26:06.17 | 4:08.60 | 117467 | 136126
6 | 30:15.02 | 11:12.45 | 136127 | 186571
7 | 41:27.47 | 4:56.60 | 186572 | 208831
8 | 46:24.32 | 12:55.33 | 208832 | 266989


Range status and errors

Selected range

Filename C:\ArlegZ\Bellini - I Puritani CD2.wav

Peak level 96.5 %
Extraction speed 1.9 X
Range quality 100.0 %
Test CRC 8FD30DB2
Copy CRC 8FD30DB2
Copy OK

No errors occurred


AccurateRip summary

Track 1 accurately ripped (confidence 9) [7887EDAF] (AR v2)
Track 2 accurately ripped (confidence 9) [E9638555] (AR v2)
Track 3 accurately ripped (confidence 9) [368DC7AE] (AR v2)
Track 4 accurately ripped (confidence 9) [F083326B] (AR v2)
Track 5 accurately ripped (confidence 9) [82D30AEF] (AR v2)
Track 6 accurately ripped (confidence 9) [B819F690] (AR v2)
Track 7 accurately ripped (confidence 9) [CD986044] (AR v2)
Track 8 accurately ripped (confidence 9) [FCF0931D] (AR v2)

All tracks accurately ripped

End of status report

–– CUETools DB Plugin V2.1.6

[CTDB TOCID: NFqIQdme6Sf.JgFp8jq3oLFf9I0-] found
Submit result: NFqIQdme6Sf.JgFp8jq3oLFf9I0- has been confirmed
Track | CTDB Status
1 | (77/79) Accurately ripped
2 | (78/79) Accurately ripped
3 | (78/79) Accurately ripped
4 | (78/79) Accurately ripped
5 | (78/79) Accurately ripped
6 | (78/79) Accurately ripped
7 | (78/79) Accurately ripped
8 | (77/79) Accurately ripped


==== Log checksum 02721F74BF6539EEAC5FE40FB0DE22861A5993E79579987BFC890D766DD99B15 ====


Exact Audio Copy V1.5 from 20. February 2020

EAC extraction logfile from 8. June 2020, 14:34

Richard Bonynge, Sutherland, Pavarotti, Cappuccilli, Ghiaurov / Bellini - I Puritani CD3

Used drive : PIONEER DVD-RW DVR-218L Adapter: 1 ID: 1

Read mode : Secure
Utilize accurate stream : Yes
Defeat audio cache : Yes
Make use of C2 pointers : No

Read offset correction : 6
Overread into Lead-In and Lead-Out : No
Fill up missing offset samples with silence : Yes
Delete leading and trailing silent blocks : No
Null samples used in CRC calculations : Yes
Used interface : Native Win32 interface for Win NT & 2000

Used output format : User Defined Encoder
Selected bitrate : 128 kBit/s
Quality : High
Add ID3 tag : No
Command line compressor : C:\Program Files\Exact Audio Copy\Flac\flac.exe
Additional command line options : -V -8 -T "Date=%year%" -T "Genre=%genre%" %source%


TOC of the extracted CD

Track | Start | Length | Start sector | End sector
––––––––––––––––––––––––––––-
1 | 0:00.32 | 7:36.30 | 32 | 34261
2 | 7:36.62 | 8:28.08 | 34262 | 72369
3 | 16:04.70 | 11:57.67 | 72370 | 126211
4 | 28:02.62 | 5:10.70 | 126212 | 149531
5 | 33:13.57 | 4:50.13 | 149532 | 171294
6 | 38:03.70 | 5:42.12 | 171295 | 196956
7 | 43:46.07 | 3:39.23 | 196957 | 213404


Range status and errors

Selected range

Filename C:\ArlegZ\Bellini - I Puritani CD3.wav

Peak level 96.4 %
Extraction speed 1.8 X
Range quality 100.0 %
Test CRC 0DAE5DF7
Copy CRC 0DAE5DF7
Copy OK

No errors occurred


AccurateRip summary

Track 1 accurately ripped (confidence 6) [4D9C8500] (AR v2)
Track 2 accurately ripped (confidence 7) [E18B89DE] (AR v2)
Track 3 accurately ripped (confidence 7) [B72B0E2D] (AR v2)
Track 4 accurately ripped (confidence 7) [04323F4B] (AR v2)
Track 5 accurately ripped (confidence 7) [D91DEE88] (AR v2)
Track 6 accurately ripped (confidence 7) [B120A26B] (AR v2)
Track 7 accurately ripped (confidence 7) [5BC69A58] (AR v2)

All tracks accurately ripped

End of status report

–– CUETools DB Plugin V2.1.6

[CTDB TOCID: BMro5JidnX8GQkBJLD.b45RqZ94-] found
Submit result: BMro5JidnX8GQkBJLD.b45RqZ94- has been confirmed
Track | CTDB Status
1 | (75/78) Accurately ripped
2 | (77/78) Accurately ripped
3 | (77/78) Accurately ripped
4 | (76/78) Accurately ripped
5 | (74/78) Accurately ripped
6 | (74/78) Accurately ripped
7 | (77/78) Accurately ripped


==== Log checksum E8225BDA3277E10381BEB533015EEEC6B0F499880AAE6BD7CB666C8A8783B2BB ====

Richard Bonynge, London Symphony Orchestra, Joan Sutherland, Luciano Pavarotti - Bellini: I Puritani (1987)