Tags
Language
Tags

Rickey Woodard - The Tokyo Express (1992) {Candid} **[RE-UP]**

Posted By: TestTickles
Rickey Woodard - The Tokyo Express (1992) {Candid} **[RE-UP]**

Rickey Woodard - The Tokyo Express (1992) {Candid}
EAC Rip | FLAC with CUE and log | scans | 367 mb
MP3 CBR 320kbps | RAR | 157 mb
Genre: jazz

While Rickey Woodard is not a household name, he and his music should be. The Tokyo Express teams him up with some of the best musicians in the business. A number of classics and standards join with two Woodard originals to create a fine recording. It is an official live recording released on Candid Records.

Rickey Woodard - The Tokyo Express (1992) {Candid} **[RE-UP]**

1. Recorda-Me
2. The Very Thought Of You
3. Just Friends
4. Sand Dance
5. Easy Living
6. Groovy Samba
7. Polka Dots & Moonbeams
8. The Tokyo Express
–-
Rickey Woodard-alto & tenor saxophones
James Williams-piano
Christian McBride-bass
Joe Chambers-drums

Recorded live at Birdland, New York City 22nd/23rd June, 1992
Rcorded digitally by Michael MacDonald
Produced by Mark Morganelli

EAC extraction logfile from 3. January 2007, 13:59 for CD
Rickey Woodard / The Tokyo Express

Used drive : LITE-ON DVDRW SOHW-1633S Adapter: 0 ID: 0
Read mode : Secure with NO C2, accurate stream, disable cache
Read offset correction : 12
Overread into Lead-In and Lead-Out : No

Used output format : Internal WAV Routines
44.100 Hz; 16 Bit; Stereo

Other options :
Fill up missing offset samples with silence : Yes
Delete leading and trailing silent blocks : No
Installed external ASPI interface


Track 1
Filename D:\FLAC\Rickey Woodard - The Tokyo Express (1992) [FLAC] {Candid}\01 - Recorda-Me.wav

Pre-gap length 0:00:02.00

Peak level 100.0 %
Track quality 100.0 %
Test CRC 1A57A9A3
Copy CRC 1A57A9A3
Copy OK

Track 2
Filename D:\FLAC\Rickey Woodard - The Tokyo Express (1992) [FLAC] {Candid}\02 - The Very Thought Of You.wav

Peak level 82.7 %
Track quality 100.0 %
Test CRC 03AB00B3
Copy CRC 03AB00B3
Copy OK

Track 3
Filename D:\FLAC\Rickey Woodard - The Tokyo Express (1992) [FLAC] {Candid}\03 - Just Friends.wav

Peak level 100.0 %
Track quality 100.0 %
Test CRC 119941E5
Copy CRC 119941E5
Copy OK

Track 4
Filename D:\FLAC\Rickey Woodard - The Tokyo Express (1992) [FLAC] {Candid}\04 - Sand Dance.wav

Peak level 100.0 %
Track quality 100.0 %
Test CRC 84E4C075
Copy CRC 84E4C075
Copy OK

Track 5
Filename D:\FLAC\Rickey Woodard - The Tokyo Express (1992) [FLAC] {Candid}\05 - Easy Living.wav

Peak level 100.0 %
Track quality 100.0 %
Test CRC 7CFF679C
Copy CRC 7CFF679C
Copy OK

Track 6
Filename D:\FLAC\Rickey Woodard - The Tokyo Express (1992) [FLAC] {Candid}\06 - Groovy Samba.wav

Peak level 100.0 %
Track quality 100.0 %
Test CRC 31E3959C
Copy CRC 31E3959C
Copy OK

Track 7
Filename D:\FLAC\Rickey Woodard - The Tokyo Express (1992) [FLAC] {Candid}\07 - Polka Dots & Moonbeams.wav

Peak level 99.0 %
Track quality 100.0 %
Test CRC 40024FD3
Copy CRC 40024FD3
Copy OK

Track 8
Filename D:\FLAC\Rickey Woodard - The Tokyo Express (1992) [FLAC] {Candid}\08 - The Tokyo Express.wav

Peak level 97.3 %
Track quality 100.0 %
Test CRC 3FE2A9B3
Copy CRC 3FE2A9B3
Copy OK

No errors occured


End of status report


Rickey Woodard - The Tokyo Express (1992) {Candid} **[RE-UP]**