Subcategories

Rob Ickes & Trey Hensley - The Country Blues (2016)

Posted By: SERTiL
Rob Ickes & Trey Hensley - The Country Blues (2016)

Rob Ickes & Trey Hensley - The Country Blues
Country, Blues | FLAC (tracks)+cue, front cover | 49:27 min | 312 MB
Label: Compass Records | Tracks: 11 | Rls.date: 2016

"In the ever changing world of country music, it's comforting to know that the real deal still exists." - Marty Stuart "I'm sure I don't make a true 'critic' since I'm already such a fan, but the new album from Rob Ickes and Trey Hensley is a wonderful piece of work. And my songwriting side is truly overwhelmed. Thank you, thank you, thank you". - Merle Haggard. "The Trey Hensley/Rob Ickes collaboration…features both electrified honky tonk and Doc Watson-style acoustic bluegrass boogie with some killer flatpicking. And above all that enthralling, nuanced singing". - Craig Havighurst, Music City Roots The follow-up album to the 2015 Grammy nominated Before The Sun Goes Down. Featuring special guests Ron Block, Vince Gill, Aubrey Haynie, Carl Jackson, Shawn Lane, Andy Leftwich, Robinella, John Randall Stewart, along with John Alvey and Mike Bub. Overview Some things you know are just meant to be, but it was still welcome news for Rob Ickes & Trey Hensley when their debut duo album, Before The Sun Goes Down, earned a nomination for the Best Bluegrass Album GRAMMY. And with the release of their new project, The Country Blues on July 8th, the pair build on the first one's strengths to take their unique musical conversation to an even higher level. Fun pervades the 11 tracks, even when the subject matter's as mournful as the post-romance desolation of Hank Williams' classic "May You Never Be Alone." It continues through the powerful Sonny Boy Williamson blues shouter, "One Way Out," the mixed regret and determination of Merle Haggard's "Won't Give Up My Train," into the grassy dexterity of their original, "Everywhere I Go." They mix it up with insouciant funk of "Never Can Pray Enough," imported from the Wood Brothers and the southern rock of Charlie Daniels on "Willie Jones?" Then there's the jazzy tour de force instrumental, "Biscuits And Gravy," written by Ickes as a kind of tribute to pedal steel master Buddy Emmons and even a nod to the Grateful Dead in "Friend Of The Devil," a dazzling staple of the duo's live shows. That organic approach served well as recording sessions with regulars Mike Bub (bass) and John Alvey (drums) and a select handful of instrumental and vocal guests that included the likes of Ron Block, Vince Gill, Aubrey Haynie, Carl Jackson, Shawn Lane, Andy Leftwich, Robinella and John Randall Stewart.

TRACKLIST
01. Ballad of a Well Known Gun (with John Randall Stewart & Robinella)
02. Everywhere I Go is a Long Way From Home (with Aubrey Haynie, Shawn Lane & Ron Block)
03. That's What Leaving's For
04. Pray Enough (with Andy Leftwich, John Randall Stewart & Robinella)
05. Leave My Woman Alone (with Aubrey Haynie)
06. I Won't Give Up My Train (with Aubrey Haynie, John Randall Stewart & Robinella)
07. Biscuits and Gravy (with Aubrey Haynie)
08. Friend of the Devil (with Aubrey Haynie & Shawn Lane)
09. May You Never Be Alone (with Andy Leftwich & Vince Gill)
10. Willie Jones (with Andy Leftwich & Carl Jackson)
11. One Way Out (with Aubrey Haynie)

Exact Audio Copy V1.3 from 2. September 2016

EAC extraction logfile from 22. January 2017, 17:55

Rob Ickes & Trey Hensley / The Country Blues

Used drive : HL-DT-STBDDVDRW CH10L Adapter: 1 ID: 0

Read mode : Secure
Utilize accurate stream : Yes
Defeat audio cache : Yes
Make use of C2 pointers : No

Read offset correction : 667
Overread into Lead-In and Lead-Out : No
Fill up missing offset samples with silence : Yes
Delete leading and trailing silent blocks : No
Null samples used in CRC calculations : Yes
Used interface : Native Win32 interface for Win NT & 2000
Gap handling : Appended to previous track

Used output format : User Defined Encoder
Selected bitrate : 1024 kBit/s
Quality : High
Add ID3 tag : No
Command line compressor : C:\Program Files (x86)\FLAC\flac.exe
Additional command line options : -8 -V -T "ARTIST=%artist%" -T "TITLE=%title%" -T "ALBUM=%albumtitle%" -T "DATE=%year%" -T "TRACKNUMBER=%tracknr%" -T "GENRE=%genre%" -T "PERFORMER=%albuminterpret%" -T "COMPOSER=%composer%" %haslyrics%–tag-from-file=LYRICS="%lyricsfile%"%haslyrics% -T "ALBUMARTIST=%albumartist%" -T "DISCNUMBER=%cdnumber%" -T "TOTALDISCS=%totalcds%" -T "TOTALTRACKS=%numtracks%" -T "COMMENT=%comment%" %source% -o %dest%


TOC of the extracted CD

Track | Start | Length | Start sector | End sector
––––––––––––––––––––––––––––-
1 | 0:00.00 | 4:50.39 | 0 | 21788
2 | 4:50.39 | 3:24.50 | 21789 | 37138
3 | 8:15.14 | 3:53.27 | 37139 | 54640
4 | 12:08.41 | 3:48.33 | 54641 | 71773
5 | 15:56.74 | 3:31.71 | 71774 | 87669
6 | 19:28.70 | 5:55.39 | 87670 | 114333
7 | 25:24.34 | 4:43.14 | 114334 | 135572
8 | 30:07.48 | 6:14.60 | 135573 | 163682
9 | 36:22.33 | 4:12.22 | 163683 | 182604
10 | 40:34.55 | 3:50.07 | 182605 | 199861
11 | 44:24.62 | 5:07.69 | 199862 | 222955


Track 1

Filename E:\PTH\Rob Ickes & Trey Hensley - The Country Blues (2016) [FLAC] {746692}\01 Ballad of a Well Known Gun.wav

Pre-gap length 0:00:02.00

Peak level 97.8 %
Extraction speed 1.0 X
Track quality 99.9 %
Test CRC 6EEB0CEB
Copy CRC 6EEB0CEB
Accurately ripped (confidence 1) [1AFCF459] (AR v2)
Copy OK

Track 2

Filename E:\PTH\Rob Ickes & Trey Hensley - The Country Blues (2016) [FLAC] {746692}\02 Everywhere I Go Is a Long Way From Home.wav

Pre-gap length 0:00:02.12

Peak level 93.3 %
Extraction speed 1.2 X
Track quality 100.0 %
Test CRC 7E419192
Copy CRC 7E419192
Accurately ripped (confidence 1) [A7B2AEBD] (AR v2)
Copy OK

Track 3

Filename E:\PTH\Rob Ickes & Trey Hensley - The Country Blues (2016) [FLAC] {746692}\03 That's What Leaving's For.wav

Pre-gap length 0:00:03.49

Peak level 91.7 %
Extraction speed 1.2 X
Track quality 99.9 %
Test CRC FD257AAC
Copy CRC FD257AAC
Accurately ripped (confidence 1) [DF7DB0B4] (AR v2)
Copy OK

Track 4

Filename E:\PTH\Rob Ickes & Trey Hensley - The Country Blues (2016) [FLAC] {746692}\04 Pray Enough.wav

Pre-gap length 0:00:02.40

Peak level 100.0 %
Extraction speed 1.4 X
Track quality 100.0 %
Test CRC 2FBB70CE
Copy CRC 2FBB70CE
Accurately ripped (confidence 1) [482D595C] (AR v2)
Copy OK

Track 5

Filename E:\PTH\Rob Ickes & Trey Hensley - The Country Blues (2016) [FLAC] {746692}\05 Leave My Woman Alone.wav

Pre-gap length 0:00:02.96

Peak level 97.8 %
Extraction speed 1.5 X
Track quality 100.0 %
Test CRC 22B7389B
Copy CRC 22B7389B
Accurately ripped (confidence 1) [56B95CD5] (AR v2)
Copy OK

Track 6

Filename E:\PTH\Rob Ickes & Trey Hensley - The Country Blues (2016) [FLAC] {746692}\06 I Won't Give Up My Train.wav

Pre-gap length 0:00:03.22

Peak level 95.8 %
Extraction speed 1.7 X
Track quality 100.0 %
Test CRC 0B7E9426
Copy CRC 0B7E9426
Accurately ripped (confidence 1) [AAB26912] (AR v2)
Copy OK

Track 7

Filename E:\PTH\Rob Ickes & Trey Hensley - The Country Blues (2016) [FLAC] {746692}\07 Biscuits and Gravy.wav

Pre-gap length 0:00:03.41

Peak level 97.2 %
Extraction speed 1.6 X
Track quality 99.9 %
Test CRC 4C755ED3
Copy CRC 4C755ED3
Accurately ripped (confidence 1) [59137DEB] (AR v2)
Copy OK

Track 8

Filename E:\PTH\Rob Ickes & Trey Hensley - The Country Blues (2016) [FLAC] {746692}\08 Friend of the Devil.wav

Pre-gap length 0:00:03.12

Peak level 96.8 %
Extraction speed 1.8 X
Track quality 99.9 %
Test CRC 80F836A0
Copy CRC 80F836A0
Accurately ripped (confidence 1) [FC670B03] (AR v2)
Copy OK

Track 9

Filename E:\PTH\Rob Ickes & Trey Hensley - The Country Blues (2016) [FLAC] {746692}\09 May You Never Be Alone.wav

Pre-gap length 0:00:02.92

Peak level 96.8 %
Extraction speed 1.8 X
Track quality 99.9 %
Test CRC A5ED7596
Copy CRC A5ED7596
Accurately ripped (confidence 1) [71177B42] (AR v2)
Copy OK

Track 10

Filename E:\PTH\Rob Ickes & Trey Hensley - The Country Blues (2016) [FLAC] {746692}\10 Willie Jones.wav

Pre-gap length 0:00:02.96

Peak level 98.5 %
Extraction speed 1.8 X
Track quality 99.9 %
Test CRC 9535BC4E
Copy CRC 9535BC4E
Accurately ripped (confidence 1) [1D856C57] (AR v2)
Copy OK

Track 11

Filename E:\PTH\Rob Ickes & Trey Hensley - The Country Blues (2016) [FLAC] {746692}\11 One Way Out.wav

Pre-gap length 0:00:02.65

Peak level 100.0 %
Extraction speed 2.2 X
Track quality 100.0 %
Test CRC 6BF8D397
Copy CRC 6BF8D397
Accurately ripped (confidence 1) [A4472D74] (AR v2)
Copy OK


All tracks accurately ripped

No errors occurred

End of status report

–– CUETools DB Plugin V2.1.6

[CTDB TOCID: ZuN7b_u0HhSmVwHX6zNPg9Qoa7A-] found
Submit result: ZuN7b_u0HhSmVwHX6zNPg9Qoa7A- has been confirmed
Track | CTDB Status
1 | (9/9) Accurately ripped
2 | (9/9) Accurately ripped
3 | (9/9) Accurately ripped
4 | (9/9) Accurately ripped
5 | (9/9) Accurately ripped
6 | (9/9) Accurately ripped
7 | (9/9) Accurately ripped
8 | (9/9) Accurately ripped
9 | (9/9) Accurately ripped
10 | (9/9) Accurately ripped
11 | (9/9) Accurately ripped


==== Log checksum 28E7BA420D76F84D72CD2615908517B1DD16E65BFDBB09F61AA639A27E93A849 ====


Thanks to the Original customer.