Tags
Language
Tags

Robert King, The King's Consort - Handel & Telemann: Water Music (1997)

Posted By: ArlegZ
Robert King, The King's Consort - Handel & Telemann: Water Music (1997)

Robert King, The King's Consort - Handel & Telemann: Water Music (1997)
EAC | FLAC | Image (Cue & Log) ~ 364 Mb | Total time: 69:55 | Scans included
Classical | Label: Hyperion | CDA66967 | Recorded: 1997

George Philipp Telemann's Wassermusik (commonly known as 'Hamburger Ebb und Fluth' – an oblique reference to the local method of sewage disposal!) was composed for a grand celebration of seafaring life during 1723. The music was noted at the time for being 'uncommonly well-suited to the occasion', and not least for its subject-matter: Telemann guides his audience through a pageant of aquatic folklore and meteorology.
Six years earlier Handel had been commissioned for a directly comparable occasion: an enormous party on the river Thames given by George I. A large orchestra was present on the musicians' barge: a good-size string section and a substantial wind presence. The sound of a large baroque wind band produces a magnificent sonority. Similarly, a colourful continuo force on the river seems probable. The rhythmic impetus of a pair of baroque guitars combined with the colours of two harpsichords lends the music a vital danceband-like rhythm section, much in keeping with the King's colourful intentions for his evening's entertainment!

Performer:
The King's Consort
Robert King, conductor

Track List:
George Frideric Handel (1685-1759)
Water Music HWV348
01. Ouverture: Largo – Allegro
02. Adagio e staccato
03. [Allegro] – Andante – [Allegro]
04. Menuet
05. Air
06. Menuet
07. Bourrée
08. Hornpipe
09. [Andante]
Water Music HWV349/350
10. Ouverture
11. Alla Hornpipe
12. [Menuet]
13. Rigaudon
14. Lentement
15. Bourrée
16. Menuet I
17. Menuet II
18. Country Dances I & II
19. Trumpet Menuet
Georg Philipp Telemann (1681-1767)
Wassermusik 'Hamburger Ebb' und Fluth'
20. Ouverture
21. Sarabande: Die schlafende Thetis
22. Bourrée: Die erwachende Thetis
23. Loure: Der verliebte Neptunus
24. Gavotte: Spielende Najaden
25. Harlequinade: Der schertzende Tritonus
26. Der stürmende Aeolus
27. Menuet: Der angenehme Zephir
28. Gigue: Ebb' und Fluth
29. Canarie: Die lustigen Bots Leute


Exact Audio Copy V1.5 from 20. February 2020

EAC extraction logfile from 15. May 2020, 21:11

The King’s Consort, Robert King / Handel Telemann Water Music

Used drive : hp CDDVDW SU-208GB Adapter: 1 ID: 0

Read mode : Secure
Utilize accurate stream : Yes
Defeat audio cache : Yes
Make use of C2 pointers : No

Read offset correction : 6
Overread into Lead-In and Lead-Out : Yes
Fill up missing offset samples with silence : Yes
Delete leading and trailing silent blocks : No
Null samples used in CRC calculations : Yes
Used interface : Native Win32 interface for Win NT & 2000

Used output format : User Defined Encoder
Selected bitrate : 1024 kBit/s
Quality : High
Add ID3 tag : No
Command line compressor : C:\Program Files (x86)\Exact Audio Copy\FLAC\FLAC.EXE
Additional command line options : -6 -V -T "ARTIST=%artist%" -T "TITLE=%title%" -T "ALBUM=%albumtitle%" -T "DATE=%year%" -T "TRACKNUMBER=%tracknr%" -T "GENRE=%genre%" -T "COMMENT=%comment%" -T "BAND=%albuminterpret%" -T "ALBUMARTIST=%albuminterpret%" -T "COMPOSER=%composer%" %haslyrics%–tag-from-file=LYRICS="%lyricsfile%"%haslyrics% -T "DISCNUMBER=%cdnumber%" -T "TOTALDISCS=%totalcds%" -T "TOTALTRACKS=%numtracks%" %hascover%–picture="%coverfile%"%hascover% %source% -o %dest%


TOC of the extracted CD

Track | Start | Length | Start sector | End sector
––––––––––––––––––––––––––––-
1 | 0:00.32 | 3:19.53 | 32 | 15009
2 | 3:20.10 | 2:06.72 | 15010 | 24531
3 | 5:27.07 | 7:20.10 | 24532 | 57541
4 | 12:47.17 | 2:55.35 | 57542 | 70701
5 | 15:42.52 | 2:31.43 | 70702 | 82069
6 | 18:14.20 | 2:30.17 | 82070 | 93336
7 | 20:44.37 | 1:02.45 | 93337 | 98031
8 | 21:47.07 | 1:17.05 | 98032 | 103811
9 | 23:04.12 | 4:23.58 | 103812 | 123594
10 | 27:27.70 | 2:00.27 | 123595 | 132621
11 | 29:28.22 | 2:58.08 | 132622 | 145979
12 | 32:26.30 | 3:03.67 | 145980 | 159771
13 | 35:30.22 | 2:42.10 | 159772 | 171931
14 | 38:12.32 | 2:03.20 | 171932 | 181176
15 | 40:15.52 | 0:52.03 | 181177 | 185079
16 | 41:07.55 | 1:00.05 | 185080 | 189584
17 | 42:07.60 | 2:09.62 | 189585 | 199321
18 | 44:17.47 | 1:29.58 | 199322 | 206054
19 | 45:47.30 | 1:31.30 | 206055 | 212909
20 | 47:18.60 | 7:28.00 | 212910 | 246509
21 | 54:46.60 | 2:08.30 | 246510 | 256139
22 | 56:55.15 | 1:51.12 | 256140 | 264476
23 | 58:46.27 | 1:44.48 | 264477 | 272324
24 | 60:31.00 | 0:41.20 | 272325 | 275419
25 | 61:12.20 | 1:05.20 | 275420 | 280314
26 | 62:17.40 | 2:09.55 | 280315 | 290044
27 | 64:27.20 | 2:45.17 | 290045 | 302436
28 | 67:12.37 | 1:08.10 | 302437 | 307546
29 | 68:20.47 | 1:34.30 | 307547 | 314626


Range status and errors

Selected range

Filename C:\Users\MATS\Downloads\Handel - Telemann_Wassermusik_TKC_R King\The King’s Consort, Robert King - Handel Telemann Water Music.wav

Peak level 98.3 %
Extraction speed 2.1 X
Range quality 100.0 %
Test CRC 2415FD1F
Copy CRC 2415FD1F
Copy OK

No errors occurred


AccurateRip summary

Track 1 accurately ripped (confidence 15) [07A30F8C] (AR v2)
Track 2 accurately ripped (confidence 15) [9D03BE4D] (AR v2)
Track 3 accurately ripped (confidence 15) [DCB08F47] (AR v2)
Track 4 accurately ripped (confidence 15) [DD4335C6] (AR v2)
Track 5 accurately ripped (confidence 15) [71235493] (AR v2)
Track 6 accurately ripped (confidence 15) [8697A6C4] (AR v2)
Track 7 accurately ripped (confidence 15) [BD102CD4] (AR v2)
Track 8 accurately ripped (confidence 15) [E89A3876] (AR v2)
Track 9 accurately ripped (confidence 15) [C7A4CE1A] (AR v2)
Track 10 accurately ripped (confidence 15) [F8E59134] (AR v2)
Track 11 accurately ripped (confidence 15) [F43B13B6] (AR v2)
Track 12 accurately ripped (confidence 15) [C9D1962B] (AR v2)
Track 13 accurately ripped (confidence 15) [18E8B36C] (AR v2)
Track 14 accurately ripped (confidence 15) [A52CE2F6] (AR v2)
Track 15 accurately ripped (confidence 14) [3F1ECE34] (AR v2)
Track 16 accurately ripped (confidence 15) [3CB62819] (AR v2)
Track 17 accurately ripped (confidence 15) [C8266C64] (AR v2)
Track 18 accurately ripped (confidence 15) [CA9CC1B6] (AR v2)
Track 19 accurately ripped (confidence 15) [F670EDE3] (AR v2)
Track 20 accurately ripped (confidence 14) [FE4CDDA0] (AR v2)
Track 21 accurately ripped (confidence 14) [0962DBC7] (AR v2)
Track 22 accurately ripped (confidence 14) [8782CC83] (AR v2)
Track 23 accurately ripped (confidence 14) [F0F95E53] (AR v2)
Track 24 accurately ripped (confidence 14) [D465C448] (AR v2)
Track 25 accurately ripped (confidence 14) [AA102D09] (AR v2)
Track 26 accurately ripped (confidence 14) [DC094F3C] (AR v2)
Track 27 accurately ripped (confidence 14) [BD632293] (AR v2)
Track 28 accurately ripped (confidence 14) [08D87F4D] (AR v2)
Track 29 accurately ripped (confidence 14) [F6B93E49] (AR v2)

All tracks accurately ripped

End of status report

–– CUETools DB Plugin V2.1.6

[CTDB TOCID: DhcOpFX7dvxtUZI6CijegtAQkr0-] found
Submit result: DhcOpFX7dvxtUZI6CijegtAQkr0- has been confirmed
Track | CTDB Status
1 | (17/17) Accurately ripped
2 | (17/17) Accurately ripped
3 | (17/17) Accurately ripped
4 | (17/17) Accurately ripped
5 | (17/17) Accurately ripped
6 | (17/17) Accurately ripped
7 | (17/17) Accurately ripped
8 | (17/17) Accurately ripped
9 | (17/17) Accurately ripped
10 | (17/17) Accurately ripped
11 | (17/17) Accurately ripped
12 | (17/17) Accurately ripped
13 | (17/17) Accurately ripped
14 | (17/17) Accurately ripped
15 | (17/17) Accurately ripped
16 | (17/17) Accurately ripped
17 | (17/17) Accurately ripped
18 | (17/17) Accurately ripped
19 | (17/17) Accurately ripped
20 | (16/17) Accurately ripped
21 | (16/17) Accurately ripped
22 | (17/17) Accurately ripped
23 | (17/17) Accurately ripped
24 | (17/17) Accurately ripped
25 | (17/17) Accurately ripped
26 | (17/17) Accurately ripped
27 | (17/17) Accurately ripped
28 | (17/17) Accurately ripped
29 | (17/17) Accurately ripped


==== Log checksum 472215B7321DD2485A6C37DAAADB31BAE0C562EA4093F2A51FF06E001D4F68CF ====

Robert King, The King's Consort - Handel & Telemann: Water Music (1997)

Thanks to the original releaser