Tags
Language
Tags

Robert King, The King's Consort - Telemann: Musique de Table (1989)

Posted By: ArlegZ
Robert King, The King's Consort - Telemann: Musique de Table (1989)

Robert King, The King's Consort - Telemann: Musique de Table (1989)
EAC | FLAC | Image (Cue & Log) ~ 346 Mb | Total time: 67:00 | Scans included
Classical | Label: Hyperion | # CDA66278 | Recorded: 1987

…The King's Consort under the direction of Robert King perform the Overture-Suites from the Second and Third Productions of Telemann's anthology…I find the new issue delightful, both musically and from a performance standpoint. The players capture the spirit of the Overture-Suite in D major (Second Production) with pleasing tempos, crisp articulation, taut rhythms and fine ensemble. The trumpet has an important role in this Suite and here it is played with finesse by Crispian Steele-Perkins—resonant, authoritative but never overbearing. Oboes are kept busy, too, as indeed is the leader, Roy Goodman who gives a lively account of the several concertante passages for violin. His presence has contributed much to the ultimate success of this project.
The Overture-Suite in B flat (Third Production) is scored for oboes and strings and here Paul Goodwin and Catherine Latham (oboes) turn in accomplished performances with only occasional lapses into tonal insecurity. Almost throughout there is a lively awareness of dance measures which together with stylish ornamentation, gives the music an airy gracefulness which I have sometimes missed in other versions of this captivating music; only the Bergerie seemed to me to drag its feet. Sensibly, the little orchestral Conclusions which properly end each Production, creating an orchestral frame, are included at the end of each of the two suites.
– Nicholas Anderson

Performer:
The King's Consort
Robert King, conductor

Track List:
Suite In D Major For Trumpet, Oboe, Strings And Continuo
01. Ouverture: Lentement - Vite - Lentement
02. Air 1: Tempo Giusto
03. Air 2: Vivace
04. Air 3: Presto
05. Air 4: Allegro
06. Conclusion: Allegro - Adagio - Allegro
Suite In B Flat Major For Two Oboes, Strings And Continuo
07. Ouverture: Lentement - Presto - Lentement
08. Bergerie: Un Peu Vivement
09. Allegresse: Vite
10. Postillons
11. Flaterie
12. Badinage: Très Vite
13. Menuet
14. Conclusion: Furiso


Exact Audio Copy V1.3 from 2. September 2016

EAC extraction logfile from 25. April 2020, 21:33

The King's Consort , Robert King / Telemann Musique De Table

Used drive : hp CDDVDW SU-208GB Adapter: 1 ID: 0

Read mode : Secure
Utilize accurate stream : Yes
Defeat audio cache : Yes
Make use of C2 pointers : No

Read offset correction : 6
Overread into Lead-In and Lead-Out : No
Fill up missing offset samples with silence : Yes
Delete leading and trailing silent blocks : No
Null samples used in CRC calculations : Yes
Used interface : Native Win32 interface for Win NT & 2000

Used output format : User Defined Encoder
Selected bitrate : 1024 kBit/s
Quality : High
Add ID3 tag : No
Command line compressor : C:\Program Files (x86)\Exact Audio Copy\FLAC\FLAC.EXE
Additional command line options : -6 -V -T "ARTIST=%artist%" -T "TITLE=%title%" -T "ALBUM=%albumtitle%" -T "DATE=%year%" -T "TRACKNUMBER=%tracknr%" -T "GENRE=%genre%" -T "COMMENT=%comment%" -T "BAND=%albuminterpret%" -T "ALBUMARTIST=%albuminterpret%" -T "COMPOSER=%composer%" %haslyrics%–tag-from-file=LYRICS="%lyricsfile%"%haslyrics% -T "DISCNUMBER=%cdnumber%" -T "TOTALDISCS=%totalcds%" -T "TOTALTRACKS=%numtracks%" %hascover%–picture="%coverfile%"%hascover% %source% -o %dest%


TOC of the extracted CD

Track | Start | Length | Start sector | End sector
––––––––––––––––––––––––––––-
1 | 0:00.00 | 11:16.30 | 0 | 50729
2 | 11:16.30 | 6:33.35 | 50730 | 80239
3 | 17:49.65 | 3:42.60 | 80240 | 96949
4 | 21:32.50 | 5:43.22 | 96950 | 122696
5 | 27:15.72 | 4:11.20 | 122697 | 141541
6 | 31:27.17 | 6:57.48 | 141542 | 172864
7 | 38:24.65 | 8:36.62 | 172865 | 211626
8 | 47:01.52 | 3:49.35 | 211627 | 228836
9 | 50:51.12 | 2:36.25 | 228837 | 240561
10 | 53:27.37 | 2:03.48 | 240562 | 249834
11 | 55:31.10 | 3:14.25 | 249835 | 264409
12 | 58:45.35 | 2:50.32 | 264410 | 277191
13 | 61:35.67 | 3:28.43 | 277192 | 292834
14 | 65:04.35 | 1:57.40 | 292835 | 301649


Range status and errors

Selected range

Filename C:\Users\MATS\Downloads\Telemann_Musique de Table_TKC_Robert King\The King's Consort , Robert King - Telemann Musique De Table.wav

Peak level 75.7 %
Extraction speed 4.2 X
Range quality 100.0 %
Test CRC 05F534F1
Copy CRC 05F534F1
Copy OK

No errors occurred


AccurateRip summary

Track 1 accurately ripped (confidence 2) [E953E3D5] (AR v2)
Track 2 cannot be verified as accurate (confidence 5) [73974CDD], AccurateRip returned [14A62860] (AR v2)
Track 3 accurately ripped (confidence 2) [FA6F0EED] (AR v2)
Track 4 accurately ripped (confidence 2) [69CE716B] (AR v2)
Track 5 accurately ripped (confidence 2) [7BFE7F2B] (AR v2)
Track 6 cannot be verified as accurate (confidence 5) [90789F89], AccurateRip returned [F3CA9F23] (AR v2)
Track 7 accurately ripped (confidence 2) [103923A5] (AR v2)
Track 8 accurately ripped (confidence 2) [A9AC0C00] (AR v2)
Track 9 accurately ripped (confidence 2) [938C9F22] (AR v2)
Track 10 accurately ripped (confidence 2) [265251AB] (AR v2)
Track 11 accurately ripped (confidence 2) [6A0B5209] (AR v2)
Track 12 accurately ripped (confidence 2) [EBA5E4CF] (AR v2)
Track 13 accurately ripped (confidence 2) [2AE1F6F1] (AR v2)
Track 14 accurately ripped (confidence 2) [EFD28EB2] (AR v2)

12 pista(s) extraidas con precisión
2 pista(s) no puede ser verificada como precisa

Some tracks could not be verified as accurate

End of status report

–– CUETools DB Plugin V2.1.6

[CTDB TOCID: HRfMqpOEol2ekEHoPLM4UacgJ9s-] found
Submit result: already submitted
Track | CTDB Status
1 | (5/5) Accurately ripped
2 | (5/5) Accurately ripped
3 | (5/5) Accurately ripped
4 | (5/5) Accurately ripped
5 | (5/5) Accurately ripped
6 | (5/5) Accurately ripped
7 | (5/5) Accurately ripped
8 | (5/5) Accurately ripped
9 | (5/5) Accurately ripped
10 | (5/5) Accurately ripped
11 | (5/5) Accurately ripped
12 | (5/5) Accurately ripped
13 | (5/5) Accurately ripped
14 | (5/5) Accurately ripped


==== Log checksum 09CF1615D5BA4884E5A4D5D37E12C5CF6869C7C46B638DD07609F0853D9C03E9 ====

Robert King, The King's Consort - Telemann: Musique de Table (1989)

Thanks to the original releaser