Tags
Language
Tags

Robert King, The King's Consort - The Coronation of King George II (2001)

Posted By: ArlegZ
Robert King, The King's Consort - The Coronation of King George II (2001)

Robert King, The King's Consort - The Coronation of King George II (2001)
EAC | FLAC | Image (Cue & Log) ~ 480 Mb | Total time: 100:47 | Scans included
Classical | Label: Hyperion | CDA67286 | Recorded: 2001

"Why present just Handel's Coronation Anthems for King George II when you can present the whole Coronation?" seems to be the proposition that underlies this two-disc set, entitled The Coronation of King George II, 1727. And, thrillingly performed by Robert King directing the King's Consort and the Choir of the King's Consort, there seems no good reason not to, and every good reason to, do just that. King, who has led many stirring recordings of Handel's oratorios in his time, turns in splendid performances of the four Coronation Anthems, along with superb performances of ceremonial choral music by Tallis, Purcell, Gibbons, Blow, Farmer, and Child. But those are just the highlights of the recording, which opens with the tolling of the bells of Westminster Abbey and closes with the tolling of the bells of London and includes along the way trumpet fanfares led by the inestimable Crispian Steele-Perkins, drum processions led by Charles Fullbrook, spoken acclamations by Andrew Carwood as the Archbishop of Canterbury, and shouts of praise by the assembled multitudes. This set may not be for everyone – enemies of the monarchy need not tune in – and may not be for every day – a steady diet of fanfares and processions may be much for some listeners – but when you are in the mood to hear royalty enthroned, this set cannot be surpassed.
–James Leonard

Performer:
The King's Consort
Robert King, conductor

Track List:
CD1:
01. Bells
02. Trumpet fanfare
03. Drums
04. Vivat (acclamation)
05. Trumpet fanfare
William Child (1606-1697)
06. O Lord, grant the King a long life
George Frideric Handel (1685-1759)
The Occasional Oratorio
07. Act 1 No 1, Overture: Overture
Henry Purcell (1659-1695)
08. I was glad when they said unto me
09. God save King George
10. Trumpet fanfare
George Frideric Handel (1685-1759)
Let thy hand be strengthened HWV259
11. Let thy hand be strengthened
12. Let justice and judgement be the preparation of thy seat
13. Alleluia
Thomas Tallis (c1505-1585)
14. Litany O God the Father of heav’n
John Farmer (fl1591-1601)
15. Come, Holy Ghost
George Frideric Handel (1685-1759)
16. Zadok the Priest HWV258
CD2:
01. Trumpet fanfare
John Blow (1649-1708)
02. Behold, O God our defender
03. Trumpet fanfare
04. God save the King
George Frideric Handel (1685-1759)
The King shall rejoice HWV260
05. The King shall rejoice in thy strength, O Lord
06. Exceeding glad shall he be
07. Glory and great worship
08. Alleluia
Orlando Gibbons (1583-1625)
Second Service
09. Morning Canticle: Te Deum
10. Trumpet fanfare
John Blow (1649-1708)
11. God spake sometime in visions
12. Drums
13. Trumpet fanfare
14. God save King George
George Frideric Handel (1685-1759)
My heart is inditing HWV261
15. My heart is inditing of a good matter
16. Kings' daughters were among thy honourable women
17. Upon thy right hand did stand the Queen in vesture of gold
18. Kings shall be thy nursing fathers
19. Trumpet fanfare
George Frideric Handel (1685-1759)
20. March
21. Trumpet fanfare
22. Drums
23. Bells


Exact Audio Copy V1.3 from 2. September 2016

EAC extraction logfile from 22. September 2019, 12:28

The King’s Consort & Robert King / The Coronation of King George II

Used drive : HL-DT-STDVD+-RW GT10N Adapter: 1 ID: 1

Read mode : Secure
Utilize accurate stream : Yes
Defeat audio cache : Yes
Make use of C2 pointers : No

Read offset correction : 102
Overread into Lead-In and Lead-Out : No
Fill up missing offset samples with silence : Yes
Delete leading and trailing silent blocks : No
Null samples used in CRC calculations : Yes
Used interface : Native Win32 interface for Win NT & 2000

Used output format : User Defined Encoder
Selected bitrate : 1024 kBit/s
Quality : High
Add ID3 tag : No
Command line compressor : C:\Program Files (x86)\Exact Audio Copy\FLAC\FLAC.EXE
Additional command line options : -6 -V -T "ARTIST=%artist%" -T "TITLE=%title%" -T "ALBUM=%albumtitle%" -T "DATE=%year%" -T "TRACKNUMBER=%tracknr%" -T "GENRE=%genre%" -T "COMMENT=%comment%" -T "BAND=%albuminterpret%" -T "ALBUMARTIST=%albuminterpret%" -T "COMPOSER=%composer%" %haslyrics%–tag-from-file=LYRICS="%lyricsfile%"%haslyrics% -T "DISCNUMBER=%cdnumber%" -T "TOTALDISCS=%totalcds%" -T "TOTALTRACKS=%numtracks%" %hascover%–picture="%coverfile%"%hascover% %source% -o %dest%


TOC of the extracted CD

Track | Start | Length | Start sector | End sector
––––––––––––––––––––––––––––-
1 | 0:00.00 | 0:49.30 | 0 | 3704
2 | 0:49.30 | 0:39.27 | 3705 | 6656
3 | 1:28.57 | 1:32.63 | 6657 | 13619
4 | 3:01.45 | 0:05.67 | 13620 | 14061
5 | 3:07.37 | 0:26.15 | 14062 | 16026
6 | 3:33.52 | 1:40.55 | 16027 | 23581
7 | 5:14.32 | 5:12.70 | 23582 | 47051
8 | 10:27.27 | 4:33.48 | 47052 | 67574
9 | 15:01.00 | 0:53.32 | 67575 | 71581
10 | 15:54.32 | 0:14.18 | 71582 | 72649
11 | 16:08.50 | 3:07.17 | 72650 | 86691
12 | 19:15.67 | 3:44.25 | 86692 | 103516
13 | 23:00.17 | 2:11.60 | 103517 | 113401
14 | 25:12.02 | 6:51.20 | 113402 | 144246
15 | 32:03.22 | 3:00.20 | 144247 | 157766
16 | 35:03.42 | 5:59.00 | 157767 | 184691


Range status and errors

Selected range

Filename C:\_RIPs\The Coronation of King George II . King\The Coronation of King George II (CD1).wav

Peak level 97.7 %
Extraction speed 1.5 X
Range quality 99.9 %
Test CRC 126E9F89
Copy CRC 126E9F89
Copy OK

No errors occurred


AccurateRip summary

Track 1 accurately ripped (confidence 14) [BAF2A24C] (AR v2)
Track 2 accurately ripped (confidence 15) [62A0569F] (AR v2)
Track 3 accurately ripped (confidence 15) [CCC6FC55] (AR v2)
Track 4 accurately ripped (confidence 7) [BE95D6D7] (AR v2)
Track 5 accurately ripped (confidence 15) [BA5566D0] (AR v2)
Track 6 accurately ripped (confidence 15) [015777B1] (AR v2)
Track 7 accurately ripped (confidence 15) [93919EFB] (AR v2)
Track 8 accurately ripped (confidence 15) [5BFB2C3C] (AR v2)
Track 9 accurately ripped (confidence 15) [220C1527] (AR v2)
Track 10 accurately ripped (confidence 15) [A601E0CA] (AR v2)
Track 11 accurately ripped (confidence 15) [C9418746] (AR v2)
Track 12 accurately ripped (confidence 15) [2E443681] (AR v2)
Track 13 accurately ripped (confidence 15) [5AFA1DB5] (AR v2)
Track 14 accurately ripped (confidence 15) [1F7A598F] (AR v2)
Track 15 accurately ripped (confidence 15) [E481C918] (AR v2)
Track 16 accurately ripped (confidence 15) [6DF34419] (AR v2)

All tracks accurately ripped

End of status report

–– CUETools DB Plugin V2.1.6

[CTDB TOCID: cVz9t0GH.oS8FWcFiJ6ShXGAkac-] found
Submit result: cVz9t0GH.oS8FWcFiJ6ShXGAkac- has been confirmed
Track | CTDB Status
1 | (18/35) Accurately ripped, or (16/35) differs in 9 samples @00:32:11-00:32:13
2 | (34/35) Accurately ripped
3 | (18/35) Accurately ripped, or (16/35) differs in 2 samples @01:29:62-01:29:64
4 | (34/35) Accurately ripped
5 | (34/35) Accurately ripped
6 | (34/35) Accurately ripped
7 | (34/35) Accurately ripped
8 | (34/35) Accurately ripped
9 | (34/35) Accurately ripped
10 | (34/35) Accurately ripped
11 | (34/35) Accurately ripped
12 | (34/35) Accurately ripped
13 | (34/35) Accurately ripped
14 | (34/35) Accurately ripped
15 | (34/35) Accurately ripped
16 | (18/35) Accurately ripped, or (16/35) differs in 520 samples @00:00:31,01:15:05-01:15:07,01:15:17-01:15:20,01:15:25-01:15:27,01:15:41-01:15:55,01:15:61-01:15:74,01:16:06-01:16:11,01:16:18-01:16:19,01:16:26-01:16:28,01:16:35-01:16:42,01:16:50-01:16:54,01:16:62-01:16:64,01:16:69-01:16:70,01:17:00-01:17:11,01:17:19-01:17:36,01:17:48-01:17:52,01:17:60-01:17:62,01:17:71-01:18:16,01:18:21-01:18:30,01:18:36-01:18:38,01:18:54,01:18:64-01:18:68,01:19:02,01:19:09-01:19:15,01:19:22-01:19:30,01:19:36,01:19:44-01:19:45,01:19:53-01:19:63,01:19:69-01:20:10,01:20:16-01:20:22,01:20:32-01:20:70,01:21:02-01:21:13,01:21:20-01:21:22,01:21:29-01:21:62,01:21:67-01:22:01,01:22:10-01:22:19,01:22:24-01:22:63,01:22:70-01:22:71,01:23:03-01:24:03,01:24:08-01:24:27,01:24:33-01:24:70,01:25:02-01:25:08,01:25:15-01:25:27,01:25:34-01:25:41,01:25:46-01:26:21,01:26:28-01:26:45,01:26:53-01:27:17,01:27:22-01:28:15


==== Log checksum 89990FE61B9D41E4A6EFCDA5C011804857BAEF6AF794582D0B5B1831F327C35C ====


Exact Audio Copy V1.3 from 2. September 2016

EAC extraction logfile from 22. September 2019, 13:53

The King's Consort & Robert King / The Coronation of King George II

Used drive : HL-DT-STDVD+-RW GT10N Adapter: 1 ID: 1

Read mode : Secure
Utilize accurate stream : Yes
Defeat audio cache : Yes
Make use of C2 pointers : No

Read offset correction : 102
Overread into Lead-In and Lead-Out : No
Fill up missing offset samples with silence : Yes
Delete leading and trailing silent blocks : No
Null samples used in CRC calculations : Yes
Used interface : Native Win32 interface for Win NT & 2000

Used output format : User Defined Encoder
Selected bitrate : 1024 kBit/s
Quality : High
Add ID3 tag : No
Command line compressor : C:\Program Files (x86)\Exact Audio Copy\FLAC\FLAC.EXE
Additional command line options : -6 -V -T "ARTIST=%artist%" -T "TITLE=%title%" -T "ALBUM=%albumtitle%" -T "DATE=%year%" -T "TRACKNUMBER=%tracknr%" -T "GENRE=%genre%" -T "COMMENT=%comment%" -T "BAND=%albuminterpret%" -T "ALBUMARTIST=%albuminterpret%" -T "COMPOSER=%composer%" %haslyrics%–tag-from-file=LYRICS="%lyricsfile%"%haslyrics% -T "DISCNUMBER=%cdnumber%" -T "TOTALDISCS=%totalcds%" -T "TOTALTRACKS=%numtracks%" %hascover%–picture="%coverfile%"%hascover% %source% -o %dest%


TOC of the extracted CD

Track | Start | Length | Start sector | End sector
––––––––––––––––––––––––––––-
1 | 0:00.00 | 0:27.70 | 0 | 2094
2 | 0:27.70 | 2:03.57 | 2095 | 11376
3 | 2:31.52 | 0:25.20 | 11377 | 13271
4 | 2:56.72 | 0:13.70 | 13272 | 14316
5 | 3:10.67 | 2:43.15 | 14317 | 26556
6 | 5:54.07 | 3:17.70 | 26557 | 41401
7 | 9:12.02 | 2:48.40 | 41402 | 54041
8 | 12:00.42 | 2:46.38 | 54042 | 66529
9 | 14:47.05 | 10:42.20 | 66530 | 114699
10 | 25:29.25 | 0:27.02 | 114700 | 116726
11 | 25:56.27 | 13:18.33 | 116727 | 176609
12 | 39:14.60 | 0:21.20 | 176610 | 178204
13 | 39:36.05 | 0:24.55 | 178205 | 180059
14 | 40:00.60 | 0:14.55 | 180060 | 181164
15 | 40:15.40 | 2:55.65 | 181165 | 194354
16 | 43:11.30 | 3:36.50 | 194355 | 210604
17 | 46:48.05 | 3:22.05 | 210605 | 225759
18 | 50:10.10 | 3:02.57 | 225760 | 239466
19 | 53:12.67 | 0:12.55 | 239467 | 240421
20 | 53:25.47 | 1:45.43 | 240422 | 248339
21 | 55:11.15 | 0:36.32 | 248340 | 251071
22 | 55:47.47 | 1:25.00 | 251072 | 257446
23 | 57:12.47 | 2:29.15 | 257447 | 268636


Range status and errors

Selected range

Filename C:\_RIPs\The Coronation of King George II . King\The Coronation of King George II (CD2).wav

Peak level 97.7 %
Extraction speed 1.8 X
Range quality 99.9 %
Test CRC 056D173F
Copy CRC 056D173F
Copy OK

No errors occurred


AccurateRip summary

Track 1 accurately ripped (confidence 15) [F204C4EF] (AR v2)
Track 2 accurately ripped (confidence 15) [D6562EAB] (AR v2)
Track 3 accurately ripped (confidence 15) [BCDA349B] (AR v2)
Track 4 accurately ripped (confidence 15) [3464F475] (AR v2)
Track 5 accurately ripped (confidence 15) [297A7764] (AR v2)
Track 6 accurately ripped (confidence 15) [C4566EEC] (AR v2)
Track 7 accurately ripped (confidence 15) [34717CF3] (AR v2)
Track 8 accurately ripped (confidence 14) [5C3E94BE] (AR v2)
Track 9 accurately ripped (confidence 15) [CA11AB5F] (AR v2)
Track 10 accurately ripped (confidence 15) [8BFAC72F] (AR v2)
Track 11 accurately ripped (confidence 15) [8F4FBB09] (AR v2)
Track 12 accurately ripped (confidence 15) [9023E24E] (AR v2)
Track 13 accurately ripped (confidence 15) [757E8738] (AR v2)
Track 14 accurately ripped (confidence 15) [EFD0E5D4] (AR v2)
Track 15 accurately ripped (confidence 15) [41D2EF94] (AR v2)
Track 16 accurately ripped (confidence 15) [22B6231C] (AR v2)
Track 17 accurately ripped (confidence 15) [C4C15000] (AR v2)
Track 18 accurately ripped (confidence 15) [74127283] (AR v2)
Track 19 accurately ripped (confidence 15) [F0F5E08C] (AR v2)
Track 20 accurately ripped (confidence 15) [51576F03] (AR v2)
Track 21 accurately ripped (confidence 15) [8A1FBA46] (AR v2)
Track 22 accurately ripped (confidence 15) [C9E5D6D6] (AR v2)
Track 23 accurately ripped (confidence 15) [E9F59762] (AR v2)

All tracks accurately ripped

End of status report

–– CUETools DB Plugin V2.1.6

[CTDB TOCID: w1vflvF5ypP0yDqRWZyqtAmvA3Q-] found
Submit result: w1vflvF5ypP0yDqRWZyqtAmvA3Q- has been confirmed
Track | CTDB Status
1 | (32/33) Accurately ripped
2 | (16/33) Accurately ripped, or (16/33) differs in 2 samples @00:00:17-00:00:20
3 | (32/33) Accurately ripped
4 | (32/33) Accurately ripped
5 | (32/33) Accurately ripped
6 | (32/33) Accurately ripped
7 | (16/33) Accurately ripped, or (16/33) differs in 1 samples @01:44:22
8 | (32/33) Accurately ripped
9 | (32/33) Accurately ripped
10 | (32/33) Accurately ripped
11 | (32/33) Accurately ripped
12 | (32/33) Accurately ripped
13 | (32/33) Accurately ripped
14 | (32/33) Accurately ripped
15 | (32/33) Accurately ripped
16 | (32/33) Accurately ripped
17 | (32/33) Accurately ripped
18 | (32/33) Accurately ripped
19 | (32/33) Accurately ripped
20 | (32/33) Accurately ripped
21 | (32/33) Accurately ripped
22 | (32/33) Accurately ripped
23 | (32/33) Accurately ripped


==== Log checksum 2AFB0BF55F946A956675E164110C65AD4AA9F4322E1B85A06515A4220CA60795 ====

Robert King, The King's Consort - The Coronation of King George II (2001)

Thanks to the original releaser