Robert Plant - Lullaby аnd... The Ceaseless Roar (2014) Digipak

Posted By: Andi_Deris
Robert Plant - Lullaby аnd... The Ceaseless Roar (2014) Digipak

Robert Plant - Lullaby аnd… The Ceaseless Roar (2014)
EAC Rip | FLAC: Image+Cue+Log | 332 Mb | MP3 CBR 320 kbps | 152 Mb | Scans | 174 Mb | Time: 50:03
Genre: Rock, Blues, Folk, World | Label: Nonesuch Records | Cat.: 7559-79537-3

Lullaby and… The Ceaseless Roar is the tenth studio album by English rock singer Robert Plant. It was released on 8 September 2014 on Nonesuch/Warner Bros. Records. It was also Plant's first studio album with his backing band the Sensational Space Shifters, although the name of the band is not credited on the front cover.

Robert Plant - Lullaby аnd... The Ceaseless Roar (2014) Digipak

Robert Plant - Lullaby аnd... The Ceaseless Roar (2014) Digipak




Robert Plant - Lullaby аnd... The Ceaseless Roar (2014) Digipak


Track Listing

01. Little Maggie (05:06)
02. Rainbow (04:18)
03. Pocketful Of Golden (04:12)
04. Embrace Another Fall (05:52)
05. Turn It Up (04:05)
06. A Stolen Kiss (05:15)
07. Somebody There (04:32)
08. Poor Howard (04:13)
09. House Of Love (05:06)
10. Up On The Hollow Hill (Understanding Arthur) (04:35)
11. Arbaden (Maggie's Babby) (02:46)

Produced by Robert Plant

Personnel

• Robert Plant - vocals

The Sensational Space Shifters (as backing band):

• Justin Adams - bendirs, djembe, guitars, tehardant, background vocals
• Liam "Skin" Tyson - banjo, guitar, background vocals
• John Baggott - keyboards, loops, moog bass, piano, tabal, background vocals
• Juldeh Camara - kologo, ritti, Fulani vocals
• Billy Fuller - bass, drum programming, omnichord, upright bass
• Dave Smith - drum set

Notes

All tracks recorded by Tim Oliver at Helium Studios, Wiltshire and Rela World Studios, Bath
Except "Rainbow", recorded by Tim Holmes at Contino Rooms, London
Piano on "A Stolen Kiss" recorded at St. George's Chapel, Bristol

Tracks 2, 6, 9 mixed by Tim Oliver at Top Cat Studio, Wiltshire
Tracks 1, 3 - 5, 7, 8, 10, 11 mixed by Tchad Blake at Full Mongret, Wales

Mastered by Bob Ludwig at Gateway Mastering, Portland, ME

Nonesuch Records Inc., a Warner Music Group Company. ℗ & © 2014 Trolcharm Ltd. under license to Nonesuch Records Inc. for the United States and WEA International Inc. for the world outside of United States.
Manifactured in the E.U.

Packaged in a double gatefold card sleeve with a catalogue number different on the sleeve and booklet to that on the CD matrix.

Robert Plant - Lullaby аnd... The Ceaseless Roar (2014) Digipak


Exact Audio Copy V1.0 beta 3 from 29. August 2011

EAC extraction logfile from 23. September 2014, 19:52

Robert Plant / Lullaby And …The Ceaseless Roar

Used drive : PLEXTOR DVDR PX-L890SA Adapter: 1 ID: 0

Read mode : Secure
Utilize accurate stream : Yes
Defeat audio cache : Yes
Make use of C2 pointers : No

Read offset correction : 6
Overread into Lead-In and Lead-Out : No
Fill up missing offset samples with silence : Yes
Delete leading and trailing silent blocks : No
Null samples used in CRC calculations : Yes
Used interface : Native Win32 interface for Win NT & 2000

Used output format : User Defined Encoder
Selected bitrate : 768 kBit/s
Quality : High
Add ID3 tag : No
Command line compressor : G:\Program Files\Exact Audio Copy\FLAC\FLAC.EXE
Additional command line options : -V -8 -T "Date=%year%" -T "Genre=%genre%" %source%


TOC of the extracted CD

Track | Start | Length | Start sector | End sector
––––––––––––––––––––––––––––-
1 | 0:00.00 | 5:06.26 | 0 | 22975
2 | 5:06.26 | 4:17.70 | 22976 | 42320
3 | 9:24.21 | 4:12.01 | 42321 | 61221
4 | 13:36.22 | 5:52.27 | 61222 | 87648
5 | 19:28.49 | 4:05.33 | 87649 | 106056
6 | 23:34.07 | 5:15.21 | 106057 | 129702
7 | 28:49.28 | 4:32.33 | 129703 | 150135
8 | 33:21.61 | 4:13.18 | 150136 | 169128
9 | 37:35.04 | 5:06.38 | 169129 | 192116
10 | 42:41.42 | 4:35.26 | 192117 | 212767
11 | 47:16.68 | 2:46.21 | 212768 | 225238


Range status and errors

Selected range

Filename H:\MUSIC\2014. Robert Plant - Lullaby And …The Ceaseless Roar (Nonesuch 7559-79537-3, EU)\Lullaby And …The Ceaseless Roar.wav

Peak level 100.0 %
Extraction speed 3.0 X
Range quality 100.0 %
Test CRC 514EB3CC
Copy CRC 514EB3CC
Copy OK

No errors occurred


AccurateRip summary

Track 1 accurately ripped (confidence 7) [51240FC8] (AR v2)
Track 2 accurately ripped (confidence 7) [CB0D40E2] (AR v2)
Track 3 accurately ripped (confidence 7) [925E331B] (AR v2)
Track 4 accurately ripped (confidence 7) [255118EC] (AR v2)
Track 5 accurately ripped (confidence 7) [ADFABA20] (AR v2)
Track 6 accurately ripped (confidence 7) [B887F641] (AR v2)
Track 7 accurately ripped (confidence 7) [6149E40C] (AR v2)
Track 8 accurately ripped (confidence 7) [1716553D] (AR v2)
Track 9 accurately ripped (confidence 7) [49AF2FBB] (AR v2)
Track 10 accurately ripped (confidence 7) [6CA0F61D] (AR v2)
Track 11 accurately ripped (confidence 7) [F866579A] (AR v2)

All tracks accurately ripped

End of status report

==== Log checksum DEFD78619A82BD96052B97CF06B59BFA25949BE4131171244A70AB0995206291 ====


Many thanks to the original uploader: snakesharmer