Tags
Language
Tags

Robin Blaze, Carolyn Sampson, Nicholas Kraemer - Handel: Great Oratorio Duets (2006)

Posted By: ArlegZ
Robin Blaze, Carolyn Sampson, Nicholas Kraemer - Handel: Great Oratorio Duets (2006)

Robin Blaze, Carolyn Sampson, Nicholas Kraemer, Orchestra of the Age of Enlightenment - Handel: Great Oratorio Duets (2006)
EAC | FLAC | Image (Cue & Log) ~ 341 Mb | Total time: 70:57 | Scans included
Classical | Label: BIS ‎| # BIS-1436 SACD | Recorded: 2005

Pure delight: two of Britain’s most exciting singers together with one of the most vibrant of the English period bands, in a collection of wonderful duets from Händel’s English oratorios and odes. Both Carolyn Sampson and Robin Blaze collaborate with Masaaki Suzuki in his recordings of Bach Cantatas, for which they are receiving high praise. ‘Sampson's rounded, lyrical, glowing tone is just what I want to hear in the warm-hearted soprano cantata O holder Tag’ said the critic in International Record Review about BIS-CD-1411, whereas The Times, UK, has described Robin Blaze as being ‘blessed with a most alluring countertenor – creamy in tone, naturally expressive, exquisitely controlled…’. These qualities certainly all come to the fore in this selection of duets which, while mainly gathered from religious works, focus on that general subject of interest: Love. Love between husband and wife, between Kings and Queens, between lovers, between conqueror and vanquished. In the course of this string of melodious pearls flow streams of pleasure, great victors are greeted and freedom smiles – all depicted with wonderful charm and feeling by Sampson, Blaze and The Orchestra of the Age of Enlightenment conducted by Nicholas Kraemer.

Performer:
Robin Blaze, countertenor
Carolyn Sampson, soprano
The Orchestra of the Age of Enlightenment
Nicholas Kraemer, conductor

Track List:
Jephtha (HWV 70):
01. These labours past
Joshua (HWV 64):
02. Oh peerless maid
03. Our limpid streams
Balshazzar (HWV 61):
04. Great victor, at your feet I bow
Susanna (HWV 66):
05. When thou art nigh
06. To my chaste Susanna's praise
Theodora (HWV 68):
07. To thee, thou glorious son of worth
08. Streams of pleasure ever flowing
Salomon (HWV 67):
09. Welcome as the dawn of day
10. Ev'ry joy that wisdom knows
Eternal source of light divine (Ode for the birthday ofQueen Anne, HWV 74):
11. Kind Health descends
Saul (HWV 53):
12. O fairest of ten thousand fair
13. At persecution I can laugh
Deborah (HWV 51):
14. Where do thy ardours raise me!
15. Smiling freedom, lovely guest
Alexander Balus (HWV 65):
16. Hail wedded love
Alexander's Feast or The Power of Musick (HWV 75):
17. Let's imitate her notes above
Esther (HWV 50b):
18. Who calls my parting soul


Exact Audio Copy V1.3 from 2. September 2016

EAC extraction logfile from 28. May 2020, 23:17

Carolyn Sampson, Robin Blaze / Great Oratorio Duets

Used drive : ATAPI iHAS124 F Adapter: 1 ID: 0

Read mode : Secure
Utilize accurate stream : Yes
Defeat audio cache : Yes
Make use of C2 pointers : No

Read offset correction : 6
Overread into Lead-In and Lead-Out : No
Fill up missing offset samples with silence : Yes
Delete leading and trailing silent blocks : No
Null samples used in CRC calculations : Yes
Used interface : Native Win32 interface for Win NT & 2000

Used output format : User Defined Encoder
Selected bitrate : 1024 kBit/s
Quality : High
Add ID3 tag : No
Command line compressor : C:\Program Files (x86)\Exact Audio Copy\FLAC\FLAC.EXE
Additional command line options : -6 -V -T "ARTIST=%artist%" -T "TITLE=%title%" -T "ALBUM=%albumtitle%" -T "DATE=%year%" -T "TRACKNUMBER=%tracknr%" -T "GENRE=%genre%" -T "COMMENT=%comment%" -T "BAND=%albuminterpret%" -T "ALBUMARTIST=%albuminterpret%" -T "COMPOSER=%composer%" %haslyrics%–tag-from-file=LYRICS="%lyricsfile%"%haslyrics% -T "DISCNUMBER=%cdnumber%" -T "TOTALDISCS=%totalcds%" -T "TOTALTRACKS=%numtracks%" %hascover%–picture="%coverfile%"%hascover% %source% -o %dest%


TOC of the extracted CD

Track | Start | Length | Start sector | End sector
––––––––––––––––––––––––––––-
1 | 0:00.00 | 6:27.46 | 0 | 29070
2 | 6:27.46 | 2:40.14 | 29071 | 41084
3 | 9:07.60 | 2:55.23 | 41085 | 54232
4 | 12:03.08 | 5:03.30 | 54233 | 76987
5 | 17:06.38 | 3:35.56 | 76988 | 93168
6 | 20:42.19 | 3:16.38 | 93169 | 107906
7 | 23:58.57 | 5:43.67 | 107907 | 133698
8 | 29:42.49 | 6:04.27 | 133699 | 161025
9 | 35:47.01 | 3:57.62 | 161026 | 178862
10 | 39:44.63 | 3:31.58 | 178863 | 194745
11 | 43:16.46 | 4:46.13 | 194746 | 216208
12 | 48:02.59 | 3:01.28 | 216209 | 229811
13 | 51:04.12 | 1:27.20 | 229812 | 236356
14 | 52:31.32 | 4:47.43 | 236357 | 257924
15 | 57:19.00 | 3:56.46 | 257925 | 275670
16 | 61:15.46 | 3:28.22 | 275671 | 291292
17 | 64:43.68 | 2:40.51 | 291293 | 303343
18 | 67:24.44 | 3:32.38 | 303344 | 319281


Range status and errors

Selected range

Filename C:\EACRip\ARIAS\Handel - Great Oratorio Duets (Carolyn Sampson, Robin Blaze, Nicholas Kraemer) (2006)\Handel - Great Oratorio Duets - Sampson, Blaze, Kraemer.wav

Peak level 95.3 %
Extraction speed 9.8 X
Range quality 100.0 %
Test CRC 72379098
Copy CRC 72379098
Copy OK

No errors occurred


AccurateRip summary

Track 1 accurately ripped (confidence 10) [223BF168] (AR v2)
Track 2 accurately ripped (confidence 11) [9DF58CC4] (AR v2)
Track 3 accurately ripped (confidence 11) [8B3D9A2D] (AR v2)
Track 4 accurately ripped (confidence 11) [1DBE6D89] (AR v2)
Track 5 accurately ripped (confidence 11) [19D8B59E] (AR v2)
Track 6 accurately ripped (confidence 11) [5D9381D7] (AR v2)
Track 7 accurately ripped (confidence 11) [D383F4DE] (AR v2)
Track 8 accurately ripped (confidence 11) [8E4EF5E6] (AR v2)
Track 9 accurately ripped (confidence 11) [02F2E9D9] (AR v2)
Track 10 accurately ripped (confidence 11) [02821ED9] (AR v2)
Track 11 accurately ripped (confidence 11) [56F34280] (AR v2)
Track 12 accurately ripped (confidence 11) [8553236A] (AR v2)
Track 13 accurately ripped (confidence 11) [C8E41099] (AR v2)
Track 14 accurately ripped (confidence 11) [27E8FAB1] (AR v2)
Track 15 accurately ripped (confidence 11) [AFE0D0D2] (AR v2)
Track 16 accurately ripped (confidence 11) [0FD7E5CC] (AR v2)
Track 17 accurately ripped (confidence 11) [F4E65C80] (AR v2)
Track 18 accurately ripped (confidence 10) [B8046C5F] (AR v2)

All tracks accurately ripped

End of status report

–– CUETools DB Plugin V2.1.6

[CTDB TOCID: xiTt6HNQlQQAh1qfoBiMEHd1xso-] found
Submit result: xiTt6HNQlQQAh1qfoBiMEHd1xso- has been confirmed
Track | CTDB Status
1 | (13/13) Accurately ripped
2 | (13/13) Accurately ripped
3 | (13/13) Accurately ripped
4 | (13/13) Accurately ripped
5 | (12/13) Accurately ripped
6 | (13/13) Accurately ripped
7 | (12/13) Accurately ripped
8 | (12/13) Accurately ripped
9 | (12/13) Accurately ripped
10 | (13/13) Accurately ripped
11 | (13/13) Accurately ripped
12 | (12/13) Accurately ripped
13 | (12/13) Accurately ripped
14 | (12/13) Accurately ripped
15 | (12/13) Accurately ripped
16 | (12/13) Accurately ripped
17 | (12/13) Accurately ripped
18 | (11/13) Accurately ripped


==== Log checksum D7F1EF6A13C79BFC498EFF64449FB3CE824C014D5752B9AE324BCFB16C0CF1BC ====

Robin Blaze, Carolyn Sampson, Nicholas Kraemer - Handel: Great Oratorio Duets (2006)

Thanks to the original releaser