Tags
Language
Tags

Roko - Think About Tomorrow (1994)

Posted By:
Roko - Think About Tomorrow (1994)

Roko - Think About Tomorrow (1994)
EAC | Flac(Image) + Cue + Log & MP3 CBR 320Kbps
ZERO, XRCN-1218 | ~ 420 or 129 Mb | Artwork(jpg) -> 9.74 Mb
Hard Rock

…Tracks range from the orchestrated Carry On, bluesy jams like I'm On Fire to the heaviest metal-esque ROKO track ever recorded, The 7th Sign. An instrumental, Wrouummm, demonstrates Marc Bugnard's prowress as a more-than capable technical guitarist…
Roko - Think About Tomorrow (1994):

Roko - Think About Tomorrow (1994)

Tracklist:

01. The Beginning (1:55)
02. The 7th Sign (5:04)
03. The Better Way (4:49)
04. Stranger Warrior (3:40)
05. Nightmare (6:03)
06. Lonely (5:21)
07. Think About Tomorrow (4:44)
08. Lady (4:04)
09. Wrouummm (2:50)
10. Leave This Way (3:30)
11. I'm On Fire (4:36)
12. Carry On (3:22)
13. You're So Wonderful (bonus track) (4:30)

- Robert Kohlmeyer - vocals, guitar
- Marc Bugnard - guitar
- Andre Pasquier - bass
- Ricky Lee - drums


Exact Audio Copy V1.0 beta 3 from 29. August 2011

EAC extraction logfile from 27. March 2014, 20:41

Roko / Think About Tomorrow

Used drive : PIONEER DVD-RW DVR-221L Adapter: 2 ID: 0

Read mode : Secure
Utilize accurate stream : Yes
Defeat audio cache : Yes
Make use of C2 pointers : No

Read offset correction : 6
Overread into Lead-In and Lead-Out : No
Fill up missing offset samples with silence : Yes
Delete leading and trailing silent blocks : No
Null samples used in CRC calculations : Yes
Used interface : Native Win32 interface for Win NT & 2000

Used output format : Internal WAV Routines
Sample format : 44.100 Hz; 16 Bit; Stereo


TOC of the extracted CD

Track | Start | Length | Start sector | End sector
––––––––––––––––––––––––––––-
1 | 0:00.00 | 1:55.50 | 0 | 8674
2 | 1:55.50 | 5:04.20 | 8675 | 31494
3 | 6:59.70 | 4:49.45 | 31495 | 53214
4 | 11:49.40 | 3:40.30 | 53215 | 69744
5 | 15:29.70 | 6:03.35 | 69745 | 97004
6 | 21:33.30 | 5:21.45 | 97005 | 121124
7 | 26:55.00 | 4:44.45 | 121125 | 142469
8 | 31:39.45 | 4:04.10 | 142470 | 160779
9 | 35:43.55 | 2:50.30 | 160780 | 173559
10 | 38:34.10 | 3:30.10 | 173560 | 189319
11 | 42:04.20 | 4:36.45 | 189320 | 210064
12 | 46:40.65 | 3:22.65 | 210065 | 225279
13 | 50:03.55 | 4:30.10 | 225280 | 245539


Range status and errors

Selected range

Filename D:\Roko - Think About Tomorrow.wav

Peak level 98.0 %
Extraction speed 4.9 X
Range quality 99.9 %
Copy CRC 3C4542BE
Copy OK

No errors occurred


AccurateRip summary

Track 1 cannot be verified as accurate (confidence 1) [16AC169D], AccurateRip returned [BA8899A7] (AR v2)
Track 2 cannot be verified as accurate (confidence 1) [44167DFF], AccurateRip returned [3115BCF5] (AR v2)
Track 3 cannot be verified as accurate (confidence 1) [DD5043FB], AccurateRip returned [BEE06AAF] (AR v2)
Track 4 cannot be verified as accurate (confidence 1) [B97AFFF6], AccurateRip returned [7B072EC0] (AR v2)
Track 5 cannot be verified as accurate (confidence 1) [BA6107E9], AccurateRip returned [A68594EB] (AR v2)
Track 6 cannot be verified as accurate (confidence 1) [5D636E3D], AccurateRip returned [D5D9ABC4] (AR v2)
Track 7 cannot be verified as accurate (confidence 1) [7DF1F4AF], AccurateRip returned [9727C67E] (AR v2)
Track 8 cannot be verified as accurate (confidence 1) [52BBC0A2], AccurateRip returned [C933AD15] (AR v2)
Track 9 cannot be verified as accurate (confidence 1) [7B44E6EB], AccurateRip returned [275DA244] (AR v2)
Track 10 cannot be verified as accurate (confidence 1) [E5DC6309], AccurateRip returned [DE3C6507] (AR v2)
Track 11 cannot be verified as accurate (confidence 1) [5B0CAD92], AccurateRip returned [D89F5495] (AR v2)
Track 12 cannot be verified as accurate (confidence 1) [008F5135], AccurateRip returned [C6820414] (AR v2)
Track 13 cannot be verified as accurate (confidence 1) [52DE819D], AccurateRip returned [7E2A2EA7] (AR v2)

No tracks could be verified as accurate
You may have a different pressing from the one(s) in the database

End of status report

==== Log checksum B8EFFA658AF9F1B4EEC1E802F331591CF248048DA9084C685AC1A9D4C2428F27 ====


[CUETools log; Date: 08.07.2021 10:30:02; Version: 2.1.4]
[AccurateRip ID: 001a5f13-01096e06-8e0cc90d] found.
Track [ CRC | V2 ] Status
01 [49c19acd|16ac169d] (0+0/1) No match
02 [43332094|44167dff] (0+0/1) No match
03 [c002ad46|dd5043fb] (0+0/1) No match
04 [3db67f2a|b97afff6] (0+0/1) No match
05 [48d2d22d|ba6107e9] (0+0/1) No match
06 [34764723|5d636e3d] (0+0/1) No match
07 [32df597e|7df1f4af] (0+0/1) No match
08 [17423ce7|52bbc0a2] (0+0/1) No match
09 [beb6d3f8|7b44e6eb] (0+0/1) No match
10 [1b828e6c|e5dc6309] (0+0/1) No match
11 [0e6066e9|5b0cad92] (0+0/1) No match
12 [e5ff4bcd|008f5135] (0+0/1) No match
13 [77f31d6a|52de819d] (0+0/1) No match
Offsetted by 6:
01 [ecbabeda] (0/1) No match (V2 was not tested)
02 [3292e5bf] (0/1) No match (V2 was not tested)
03 [a3d6aa12] (0/1) No match (V2 was not tested)
04 [00ffd964] (0/1) No match (V2 was not tested)
05 [3216eb4b] (0/1) No match (V2 was not tested)
06 [af73be9d] (0/1) No match (V2 was not tested)
07 [4e5336ff] (0/1) No match (V2 was not tested)
08 [8fa6a17a] (0/1) No match (V2 was not tested)
09 [6c259cc4] (0/1) No match (V2 was not tested)
10 [158764c4] (0/1) No match (V2 was not tested)
11 [8e1966e9] (0/1) No match (V2 was not tested)
12 [ad86e94b] (0/1) No match (V2 was not tested)
13 [a55c1c8c] (0/1) No match (V2 was not tested)

Track Peak [ CRC32 ] [W/O NULL] [ LOG ]
– 98,0 [3C4542BE] [4F5F22FC] CRC32
01 53,4 [18BFE5E7] [BF4CCA61]
02 98,0 [90A06752] [58335577]
03 89,4 [86CF3A50] [0FA545B6]
04 98,0 [A49CAAB5] [1F957375]
05 86,1 [7CEEC6F8] [54607AF8]
06 86,1 [DF8DC42A] [BEB5A19E]
07 86,3 [FBFDE930] [8FFC9D1B]
08 97,9 [CBC73E0F] [531F8D45]
09 86,1 [FA48CEC5] [8CF3C45F]
10 98,0 [5188323E] [ACFFFAD9]
11 86,1 [105934F4] [E968FD93]
12 97,3 [9AD074E0] [CD1C5C44]
13 92,4 [3B571ADD] [5939FAAD]


Roko - Think About Tomorrow (1994)

All thanks go to the original releaser

Roko in my Blog

Download Roko - Think About Tomorrow (1994):