Subcategories
Tags
Language
Tags

The Rolling Stones - It's Only Rock 'n' Roll - Outtakes (1995)

Posted By: v3122
The Rolling Stones - It's Only Rock 'n' Roll - Outtakes (1995)

The Rolling Stones - It's Only Rock 'n' Roll - Outtakes (1995)
Flac(Image) + Cue & MP3 CBR 320Kbps
Invasion Unlimited, IU9536-1 | ~ 392 or 182 Mb | Artwork(jpg) -> 1.22 Mb
Rock & Roll / Classic Rock

~ Compilation, Unofficial Release ~

The Rolling Stones - It's Only Rock 'n' Roll - Outtakes (1995):

The Rolling Stones - It's Only Rock 'n' Roll - Outtakes (1995)

Tracklist:


1 Exile On Main Street Blues
2 Good Time Women
3 Tumbling Dice
4 Let It Loose
5 Travelling Man
6 Aladdin Story
7 Potted Shrimp
8 Leather Jacket
9 Seperately
10 Dancing With Mr. D
11 Criss-Cross Man
12 Silver Train (Version 1)
13 Silver Train (Version 2)
14 Living In A Harder World
15 Drift Away
16 Hey Negrita
17 Crazy Mama
18 Slave
19 Hand Of Fate
20 Munich Reggae
21 Worried About You
22 Cellophane Trousers

[CUETools log; Date: 30.04.2021 11:15:12; Version: 2.1.4]
[AccurateRip ID: 003f39ef-03f2d145-6e120a16] found.
Track [ CRC | V2 ] Status
01 [fa7e2db1|ced4c6f2] (0+0/4) No match
02 [86210078|a31260b9] (0+0/4) No match
03 [4cb7985b|92e70aca] (0+0/4) No match
04 [84923dff|9620eba9] (0+0/4) No match
05 [a5688f35|e1d0099a] (0+0/4) No match
06 [ae4eb900|15e5aa09] (0+0/4) No match
07 [ef173637|c56407d8] (0+0/4) No match
08 [a97b0e07|975e08d4] (0+0/4) No match
09 [48e1c281|7ed72825] (0+0/4) No match
10 [e05feb0e|1d18a2f6] (0+0/4) No match
11 [28c35969|f33047ac] (0+0/4) No match
12 [a25c003d|770850ce] (0+0/4) No match
13 [085421d1|0981af08] (0+0/4) No match
14 [21ab0296|b3787eab] (0+0/4) No match
15 [7c90232f|4859426d] (0+0/4) No match
16 [30de4c73|5f7aa1b5] (0+0/4) No match
17 [3651b8ce|20ea7bf8] (0+0/4) No match
18 [eb373c89|1c654f87] (0+0/4) No match
19 [e56171dc|3c1d05b4] (0+0/4) No match
20 [aab892ae|13457337] (0+0/4) No match
21 [1acee5d0|6c7b6a3e] (0+0/4) No match
22 [fa13805b|cd2bb8d7] (0+0/4) No match
Offsetted by 6:
01 [5abaf117] (1/4) Accurately ripped
02 [8c0380ba] (0/4) No match
03 [88680e8b] (1/4) Accurately ripped
04 [f6a6d9c1] (1/4) Accurately ripped
05 [f2757ecb] (0/4) No match
06 [a84fcce2] (0/4) No match
07 [422ad64b] (0/4) No match
08 [eecd3787] (0/4) No match
09 [5a57dac7] (0/4) No match
10 [e650d60a] (1/4) Accurately ripped
11 [eb0cb153] (0/4) No match
12 [d72dbceb] (0/4) No match
13 [ebdcf473] (0/4) No match
14 [c6d8463e] (1/4) Accurately ripped
15 [4a98f74d] (0/4) No match
16 [a3551a2b] (0/4) No match
17 [622f2948] (0/4) No match
18 [d5b0c8f3] (0/4) No match
19 [68941c36] (1/4) Accurately ripped
20 [bb7f4ad0] (1/4) Accurately ripped
21 [57899006] (0/4) No match
22 [35fcc8b7] (0/4) No match

Track Peak [ CRC32 ] [W/O NULL]
– 100,0 [1DDC4560] [D5E5F3DF]
01 98,0 [8C597A6F] [49FBCD77]
02 95,0 [A5B4E258] [22797B64]
03 100,0 [43DFFA94] [AA0F1F41]
04 98,0 [593BF650] [00D2531E]
05 86,2 [406841D3] [6D3F4A00]
06 85,9 [32AC6044] [86EE2290]
07 83,4 [9F5231BC] [714E4C61]
08 95,5 [7D32AC3A] [742F2E0A]
09 78,8 [E69D51BB] [226B7BE8]
10 98,0 [59460FA8] [25449FE6]
11 82,9 [03929374] [A58237D2]
12 93,5 [2FF2D7CA] [FDD194E6]
13 86,9 [3818D635] [C0F10FA0]
14 98,0 [6F9520AF] [4F519137]
15 89,9 [A294DE3A] [3C8CED0C]
16 65,7 [174744CD] [F8E8FA61]
17 73,0 [A10153DE] [EE69B9DE]
18 67,3 [41ACEEF9] [F97A61FE]
19 100,0 [BF4D1F80] [623820B6]
20 98,1 [C1E2ADBE] [F36DFD4D]
21 90,6 [553B9E44] [842C969F]
22 84,3 [945AF10A] [885064EC]


The Rolling Stones - It's Only Rock 'n' Roll - Outtakes (1995)

All thanks go to the original releaser

Rolling Stones in my Blog

Download The Rolling Stones - It's Only Rock 'n' Roll - Outtakes (1995):