Subcategories
Tags
Language
Tags

Jean-Christophe Spinosi, Ensemble Matheus - Rossini: L'Italiana in Algeri (2019) [BDRip]

Posted By: Vilboa
Jean-Christophe Spinosi, Ensemble Matheus - Rossini: L'Italiana in Algeri (2019) [BDRip]

Jean-Christophe Spinosi, Ensemble Matheus - Rossini: L'Italiana in Algeri (2019) [BDRip]
BluRay-rip | AVC | MKV 1280x720 / 2735 kbps / 29,97 fps | 162 min | 4,84 Gb
Audio: Italiano / DTS / 6ch / 48.0 KHz / 24 bits
Classical | Unitel Edition | Sub: English, German, French, Italian, Korean, Japanese

“The role of Isabella is sung to perfection by Cecilia Bartoli – a clever, independent woman with an adventurous streak” (New York Times). Bartoli’s superb performance in Gioachino Rossini’s L’Italiana in Algeri (The Italian Girl in Algiers) at Salzburg Festival, directed by the BAFTA-winning stage director duo Moshe Leiser and Patrice Caurier, is a highlight among the Rossini celebrations on the occasion of the 150th anniversary of the composer’s death. The DVD captures Bartoli’s excellent performance in a rare audiovisual recording of the Italian superstar, who is one of the most successful opera singers of our time. In this vibrant comedy, every look, every hand gesture brings Isabella to life: Bartoli presents the spirited Italian woman with fire, finesse and extraordinary acting abilities – “a Rossini masterclass” (Bachtrack). Her Isabella is a strong, independent woman who has no intentions of accepting the advances of the powerful Mustafà. In the staging by Leiser/Caurier, which plays with preconceived notions about clashing cultures, Mustafà is no longer an Ottoman bey, but a kind of local gangster who smuggles electronics at the port of modern-day Algiers. In the colourful sets of Christian Fenouillat, Ildar Abdrazakov sings the leering macho, looking for a love affair with the beautiful Italian, with delight and “great comic talent” (Salzburger Nachrichten). Edgardo Rocha’s bright tenor climbs up without effort, making his performance as Isabella’s lover Lindoro flowing and highly emotional. The conductor Jean-Christophe Spinosi, showing sensitivity to the intricacies and sparkle of Rossini’s score, leads the excellent Ensemble Matheus in a “beguiling performance” (The New York Times).

Cast:
Isabella - Cecilia Bartoli
Mustafà - Ildar Abdrazakov
Lindoro - Edgardo Rocha
Taddeo - Alessandro Corbelli
Haly - José Coca Loza
Elvira - Rebeca Olvera
Zulma - Rosa Bove
Vienna Philharmonia Chorus
Ensemble Matheus
Conductor - Jean-Christophe Spinosi


General
Unique ID : 178981452810999743348424894979446796811 (0x86A692EE1DB995B0BB67394C9215F20B)
Complete name : C:\L'ITALIANA IN ALGERI.mkv
Format : Matroska
Format version : Version 2
File size : 4.85 GiB
Duration : 2h 42mn
Overall bit rate : 4 282 Kbps
Movie name : L'ITALIANA IN ALGERI
Encoded date : UTC 2021-03-22 12:24:59
Writing application : DVDFab 9.1.6.8
Writing library : libebml v0.7.8 + libmatroska v0.8.1

Video
ID : 1
Format : AVC
Format/Info : Advanced Video Codec
Format profile : High@L4.1
Format settings, CABAC : Yes
Format settings, ReFrames : 2 frames
Codec ID : V_MPEG4/ISO/AVC
Duration : 2h 42mn
Bit rate : 2 735 Kbps
Width : 1 280 pixels
Height : 720 pixels
Display aspect ratio : 16:9
Frame rate mode : Constant
Frame rate : 29.970 fps
Color space : YUV
Chroma subsampling : 4:2:0
Bit depth : 8 bits
Scan type : Progressive
Bits/(Pixel*Frame) : 0.099
Stream size : 3.04 GiB (63%)
Writing library : x264 core 142
Encoding settings : cabac=1 / ref=1 / deblock=1:-1:-1 / analyse=0x3:0 / me=hex / subme=5 / psy=0 / mixed_ref=0 / me_range=16 / chroma_me=1 / trellis=0 / 8x8dct=1 / cqm=0 / deadzone=21,11 / fast_pskip=1 / chroma_qp_offset=0 / threads=8 / lookahead_threads=2 / sliced_threads=0 / nr=0 / decimate=1 / interlaced=0 / bluray_compat=0 / constrained_intra=0 / bframes=2 / b_pyramid=0 / b_adapt=1 / b_bias=0 / direct=1 / weightb=1 / open_gop=0 / weightp=0 / keyint=24 / keyint_min=13 / scenecut=40 / intra_refresh=0 / rc=abr / mbtree=0 / bitrate=2735 / ratetol=1.0 / qcomp=0.60 / qpmin=0 / qpmax=69 / qpstep=4 / ip_ratio=1.40 / pb_ratio=1.30 / aq=1:1.00
Default : Yes
Forced : No
Color primaries : BT.709
Transfer characteristics : BT.709
Matrix coefficients : BT.709
Color range : Limited

Audio
ID : 2
Format : DTS
Format/Info : Digital Theater Systems
Mode : 16
Format settings, Endianness : Big
Codec ID : A_DTS
Duration : 2h 42mn
Bit rate mode : Constant
Bit rate : 1 509 Kbps
Channel(s) : 6 channels
Channel positions : Front: L C R, Side: L R, LFE
Sampling rate : 48.0 KHz
Bit depth : 24 bits
Compression mode : Lossy
Stream size : 1.71 GiB (35%)
Language : Italian
Default : Yes
Forced : No

Text #1
ID : 3
Format : VobSub
Codec ID : S_VOBSUB
Codec ID/Info : The same subtitle format used on DVDs
Language : Italian
Default : Yes
Forced : No

Text #2
ID : 4
Format : VobSub
Codec ID : S_VOBSUB
Codec ID/Info : The same subtitle format used on DVDs
Language : English
Default : No
Forced : No

Text #3
ID : 5
Format : VobSub
Codec ID : S_VOBSUB
Codec ID/Info : The same subtitle format used on DVDs
Language : German
Default : No
Forced : No

Text #4
ID : 6
Format : VobSub
Codec ID : S_VOBSUB
Codec ID/Info : The same subtitle format used on DVDs
Language : French
Default : No
Forced : No

Text #5
ID : 7
Format : VobSub
Codec ID : S_VOBSUB
Codec ID/Info : The same subtitle format used on DVDs
Language : Korean
Default : No
Forced : No

Text #6
ID : 8
Format : VobSub
Codec ID : S_VOBSUB
Codec ID/Info : The same subtitle format used on DVDs
Language : Japanese
Default : No
Forced : No

Menu
00:00:00.000 : en:Chapter 01
00:01:51.077 : en:Chapter 02
00:10:19.552 : en:Chapter 03
00:17:31.784 : en:Chapter 04
00:17:56.375 : en:Chapter 05
00:20:50.249 : en:Chapter 06
00:28:29.708 : en:Chapter 07
00:30:05.804 : en:Chapter 08
00:35:17.114 : en:Chapter 09
00:36:12.770 : en:Chapter 10
00:40:44.909 : en:Chapter 11
00:41:51.509 : en:Chapter 12
00:43:16.594 : en:Chapter 13
00:51:13.970 : en:Chapter 14
00:52:48.932 : en:Chapter 15
00:54:03.240 : en:Chapter 16
00:58:04.481 : en:Chapter 17
00:59:05.241 : en:Chapter 18
01:01:35.725 : en:Chapter 19
01:06:04.961 : en:Chapter 20
01:08:31.107 : en:Chapter 21
01:13:47.423 : en:Chapter 22
01:17:37.653 : en:Chapter 23
01:19:56.224 : en:Chapter 24
01:20:53.148 : en:Chapter 25
01:22:40.956 : en:Chapter 26
01:24:14.315 : en:Chapter 27
01:26:48.937 : en:Chapter 28
01:28:05.280 : en:Chapter 29
01:29:08.343 : en:Chapter 30
01:29:33.601 : en:Chapter 31
01:35:05.700 : en:Chapter 32
01:37:09.823 : en:Chapter 33
01:44:39.172 : en:Chapter 34
01:46:09.363 : en:Chapter 35
01:56:03.923 : en:Chapter 36
01:56:33.753 : en:Chapter 37
01:59:07.306 : en:Chapter 38
02:00:34.126 : en:Chapter 39
02:01:46.299 : en:Chapter 40
02:08:06.679 : en:Chapter 41
02:08:54.727 : en:Chapter 42
02:10:24.049 : en:Chapter 43
02:12:01.947 : en:Chapter 44
02:18:09.281 : en:Chapter 45
02:19:00.532 : en:Chapter 46
02:22:26.538 : en:Chapter 47
02:29:12.944 : en:Chapter 48
02:31:06.991 : en:Chapter 49
02:40:45.535 : en:Chapter 50

Jean-Christophe Spinosi, Ensemble Matheus - Rossini: L'Italiana in Algeri (2019) [BDRip]