Subcategories

Michele Mariotti, The Metropolitan Opera Orchestra, Joyce DiDonato, Juan Diego Florez - Rossini: La Donna del lago (2015)

Posted By: Vilboa
Michele Mariotti, The Metropolitan Opera Orchestra, Joyce DiDonato, Juan Diego Florez - Rossini: La Donna del lago (2015)

Michele Mariotti, The Metropolitan Opera Orchestra, Joyce DiDonato, Juan Diego Flórez - Rossini: La Donna del lago (2015) [Blu-Ray]
BluRay | BDMV | MPEG-4 AVC Video / 31000 kbps / 1080i / 29,970 fps | 165 min | 43,3 Gb
Audio1: Italian / LPCM Audio / 2.0 / 24-bit | Audio2: Dolby Digital Audio / 5.1 / 48 kHz / 640 kbps

BluRay-rip | AVC | MKV 1920x1080 / 6215 kbps / 29,97 fps | 165 min | 7,93 Gb
Audio: Italian / AC3 / 6ch / 48.0 KHz / 640 kbps
Classical | Erato | Sub: Italian, English, French, German, Spanish

The Metropolitan Opera give this live performance of Rossini's work based on the poem by Sir Walter Scott. Michele Mariotti conducts the Metropolitan Opera Orchestra and Chorus with Joyce DiDonato as Elena, the lady of the lake, who loves the heroic Malcolm (Daniela Barcellona). However, King James V (Juan Diego Flórez) arrives in the Highlands and sets his sights on Elena while her father Douglas (Oren Gradus), who is rebelling against the King's rule, promises his daughter to clan chief Rodrigo (John Osborn).

Cast:
Elena - Joyce DiDonato
Giacomo V - Juan Diego Flórez
Malcolm Groeme - Daniela Barcellona
Serano - Eduardo Valdes
Duglas d'Angus - Oren Gradus
Rodrigo di Dhu - John Osborn
Albina - Olga Makarina
Bertram - Gregory Schmidt
The Metropolitan Opera Orchestra and Chorus
Conductor - Michele Mariotti


Disc Title: LaDonnaDelLago
Disc Size: 46 587 384 593 bytes
Protection: AACS
BD-Java: Yes
Playlist: 01002.MPLS
Size: 44 058 624 000 bytes
Length: 2:44:35.665
Total Bitrate: 35,69 Mbps
Video: MPEG-4 AVC Video / 31000 kbps / 1080i / 29,970 fps / 16:9 / High Profile 4.1
Audio: Italian / LPCM Audio / 2.0 / 48 kHz / 2304 kbps / 24-bit
Audio: Italian / Dolby Digital Audio / 5.1 / 48 kHz / 640 kbps
Subtitle: Italian / 11,537 kbps
Subtitle: English / 12,142 kbps
Subtitle: French / 12,878 kbps
Subtitle: German / 13,917 kbps
Subtitle: Spanish / 12,799 kbps


General
Unique ID : 187478090702205673868002282635620648766 (0x8D0AF785727A9257ADDFFD61F402073E)
Complete name : C:\La_donna_del_lago.mkv
Format : Matroska
Format version : Version 2
File size : 7.94 GiB
Duration : 2h 44mn
Overall bit rate : 6 903 Kbps
Movie name : La_donna_del_lago
Encoded date : UTC 2017-05-18 11:14:10
Writing application : DVDFab 9.1.6.8
Writing library : libebml v0.7.8 + libmatroska v0.8.1

Video
ID : 1
Format : AVC
Format/Info : Advanced Video Codec
Format profile : High@L4.1
Format settings, CABAC : Yes
Format settings, ReFrames : 2 frames
Codec ID : V_MPEG4/ISO/AVC
Duration : 2h 44mn
Bit rate : 6 215 Kbps
Width : 1 920 pixels
Height : 1 080 pixels
Display aspect ratio : 16:9
Frame rate mode : Constant
Frame rate : 29.970 fps
Color space : YUV
Chroma subsampling : 4:2:0
Bit depth : 8 bits
Scan type : Progressive
Bits/(Pixel*Frame) : 0.100
Stream size : 7.04 GiB (89%)
Writing library : x264 core 142
Encoding settings : cabac=1 / ref=1 / deblock=1:-1:-1 / analyse=0x3:0 / me=hex / subme=5 / psy=0 / mixed_ref=0 / me_range=16 / chroma_me=1 / trellis=0 / 8x8dct=1 / cqm=0 / deadzone=21,11 / fast_pskip=1 / chroma_qp_offset=0 / threads=8 / lookahead_threads=2 / sliced_threads=0 / nr=0 / decimate=1 / interlaced=0 / bluray_compat=0 / constrained_intra=0 / bframes=2 / b_pyramid=0 / b_adapt=1 / b_bias=0 / direct=1 / weightb=1 / open_gop=0 / weightp=0 / keyint=24 / keyint_min=13 / scenecut=40 / intra_refresh=0 / rc=abr / mbtree=0 / bitrate=6215 / ratetol=1.0 / qcomp=0.60 / qpmin=0 / qpmax=69 / qpstep=4 / ip_ratio=1.40 / pb_ratio=1.30 / aq=1:1.00
Default : Yes
Forced : No
Color primaries : BT.709
Transfer characteristics : BT.709
Matrix coefficients : BT.709
Color range : Limited

Audio
ID : 2
Format : AC-3
Format/Info : Audio Coding 3
Mode extension : CM (complete main)
Format settings, Endianness : Big
Codec ID : A_AC3
Duration : 2h 44mn
Bit rate mode : Constant
Bit rate : 640 Kbps
Channel(s) : 6 channels
Channel positions : Front: L C R, Side: L R, LFE
Sampling rate : 48.0 KHz
Bit depth : 16 bits
Compression mode : Lossy
Stream size : 753 MiB (9%)
Language : Italian
Default : Yes
Forced : No

Text #1
ID : 3
Format : VobSub
Codec ID : S_VOBSUB
Codec ID/Info : The same subtitle format used on DVDs
Language : Italian
Default : Yes
Forced : No

Text #2
ID : 4
Format : VobSub
Codec ID : S_VOBSUB
Codec ID/Info : The same subtitle format used on DVDs
Language : English
Default : No
Forced : No

Text #3
ID : 5
Format : VobSub
Codec ID : S_VOBSUB
Codec ID/Info : The same subtitle format used on DVDs
Language : French
Default : No
Forced : No

Text #4
ID : 6
Format : VobSub
Codec ID : S_VOBSUB
Codec ID/Info : The same subtitle format used on DVDs
Language : German
Default : No
Forced : No

Text #5
ID : 7
Format : VobSub
Codec ID : S_VOBSUB
Codec ID/Info : The same subtitle format used on DVDs
Language : Spanish
Default : No
Forced : No

Menu
00:00:00.000 : en:Chapter 01
00:01:03.997 : en:Chapter 02
00:02:16.169 : en:Chapter 03
00:07:21.974 : en:Chapter 04
00:12:06.992 : en:Chapter 05
00:19:12.951 : en:Chapter 06
00:23:24.002 : en:Chapter 07
00:27:51.636 : en:Chapter 08
00:31:10.668 : en:Chapter 09
00:33:34.012 : en:Chapter 10
00:36:49.173 : en:Chapter 11
00:42:25.009 : en:Chapter 12
00:45:21.518 : en:Chapter 13
00:48:24.368 : en:Chapter 14
00:51:47.437 : en:Chapter 15
00:55:25.588 : en:Chapter 16
00:58:57.166 : en:Chapter 17
01:00:32.028 : en:Chapter 18
01:04:46.015 : en:Chapter 19
01:08:08.818 : en:Chapter 20
01:11:04.994 : en:Chapter 21
01:14:03.372 : en:Chapter 22
01:16:35.691 : en:Chapter 23
01:18:04.746 : en:Chapter 24
01:19:46.982 : en:Chapter 25
01:24:45.013 : en:Chapter 26
01:26:07.362 : en:Chapter 27
01:27:40.388 : en:Chapter 28
01:29:45.046 : en:Chapter 29
01:31:43.030 : en:Chapter 30
01:35:28.222 : en:Chapter 31
01:37:14.762 : en:Chapter 32
01:38:00.941 : en:Chapter 33
01:47:48.662 : en:Chapter 34
01:49:42.142 : en:Chapter 35
01:54:42.976 : en:Chapter 36
01:56:47.433 : en:Chapter 37
01:59:10.610 : en:Chapter 38
02:00:54.280 : en:Chapter 39
02:04:23.856 : en:Chapter 40
02:07:46.992 : en:Chapter 41
02:11:55.040 : en:Chapter 42
02:16:32.984 : en:Chapter 43
02:17:34.646 : en:Chapter 44
02:19:54.986 : en:Chapter 45
02:21:14.766 : en:Chapter 46
02:22:30.141 : en:Chapter 47
02:24:32.130 : en:Chapter 48
02:26:08.025 : en:Chapter 49
02:27:54.031 : en:Chapter 50
02:32:00.211 : en:Chapter 51
02:37:00.010 : en:Chapter 52
02:41:05.489 : en:Chapter 53


All screenshots taken from Blu-ray

Michele Mariotti, The Metropolitan Opera Orchestra, Joyce DiDonato, Juan Diego Florez - Rossini: La Donna del lago (2015)
Michele Mariotti, The Metropolitan Opera Orchestra, Joyce DiDonato, Juan Diego Florez - Rossini: La Donna del lago (2015)
Michele Mariotti, The Metropolitan Opera Orchestra, Joyce DiDonato, Juan Diego Florez - Rossini: La Donna del lago (2015)
Michele Mariotti, The Metropolitan Opera Orchestra, Joyce DiDonato, Juan Diego Florez - Rossini: La Donna del lago (2015)