Tags
Language
Tags

Rush - Chronicles (1990) [Japan Press 1991] 2xCD Re-up

Posted By: Andi_Deris
Rush - Chronicles (1990) [Japan Press 1991] 2xCD Re-up

Rush - Chronicles (1990) [Japan Press 1991] 2xCD
EAC Rip | FLAC: Image+Cue+Log | 964 Mb | MP3 CBR 320 kbps | 384 Mb | Scans | 80 Mb | TTime: 02:24:14
Anthem Ent./MMG Inc. | AMCY-327~8
Progressive Rock, Hard Rock

Since this is a collection of ALL the Rush Greatest Hits, it ranks as one of the best albums they have made, but it is missing some rather important songs such as, "Xanadu" and some of the wonderful instrumentals like "Leave that thing alone" all in all it has the power guitar song "Temples Of Syrinx" and the classic "Limelight" along with the rest of the Rush songs you all want to hear.

Rush - Chronicles (1990) [Japan Press 1991] 2xCD Re-up




Rush - Chronicles (1990) [Japan Press 1991] 2xCD Re-up


DISC 1

01. Finding My Way (5:08)
02. Working Man (7:11)
03. Fly By Night (3:21)
04. Anthem (4:24)
05. Bastille Day (4:39)
06. Lakeside Park (4:10)
07. 2112 a) Overture b) The Temples Of Syrinx (6:47)
08. What You're Doing (Live Version) (5:41)
09. A Farewell To Kings (5:52)
10. Closer To The Heart (2:54)
11. The Trees (4:40)
12. La Villa Strangiato (9:36)
13. Freewill (5:25)
14. The Spirit Of Radio (4:58)

Rush - Chronicles (1990) [Japan Press 1991] 2xCD Re-up


DISC 2

01. Tom Sawyer (4:37)
02. Red Barchetta (6:09)
03. Limelight (4:22)
04. A Passage To Bangkok (Live Version) (3:47)
05. Subdivisions (5:34)
06. New World Man (3:42)
07. Distant Early Warning (4:58)
08. Red Sector A (5:12)
09. The Big Money (5:35)
10. Manhattan Project (5:06)
11. Force Ten (4:33)
12. Time Stand Still (5:10)
13. Mystic Rhythms (Live Version) (5:42)
14. Show Don't Tell (5:01)

Produced by Rush

The Band

• Geddy Lee - bass guitar, bass pedals, synthesizers, vocals
• Alex Lifeson - electric and acoustic guitars, synthesizers
• Neil Peart - drums, percussion, electronic percussion

*****
• John Rutsey - drums on "Finding My Way" and "Working Man"
• Additional vocals on "Time Stand Still" by Aimee Mann, courtesy of Epic Records

Notes

Compiled by Bill Levenson
Essay by John Swenson

Mastered by Bob Ludwig, Masterdisk, NYC

Digitally compiled by Denis Drake, PolyGram Studios and Bob Ludwig, Masterdisk, NYC

Art direction by Hugh Syme
Photography by John Scarpati and Andrew MacNaughtan
Management by Ray Danniels, SRO Management Inc., Toronto

PolyGram/Anthem, September 4, 1990
© 1990 PolyGram Records © 1990 Anthem Entertainment
"Show Don't Tell" © 1989 Atlantic Records © 1989 Anthem Entertainment


Exact Audio Copy V0.99 prebeta 5 from 4. May 2009

Archivo Log de extracciones desde 23. Septiembre 2014, 13:14

RUSH / Chronicles [Disc 1] - Japan (AMCY-327)

Usar unidad : HL-DT-STDVDRAM GH22NS70 Adapter: 0 ID: 0

Modo de Lectura : Seguro
Utilizar Corriente Exacta : Sн
Descartar Audio cachй : Sн
Utilizar los punteros C2 : No

Correcciуn de Desplazamiento de Lectura : 667
Sobreleer tanto en Lead-In como en Lead-Out : No
Rellenar las muestras faltantes con silencios : Sн
Eliminar silencios inicial y final : No
Se han usado muestras nulas en los cбlculos CRC : Sн
Interfaz usada : Interfaz propio de Win32 para Windowns NT y 2000

Formato de Salida utilizado : Compresor definido por el usuario
Bitrate seleccionado : 32 kBit/s
Calidad : Alta
Aсadir Etiqueta ID3 : No
Compresor de linea de comandos : C:\Program Files (x86)\Exact Audio Copy\Flac\flac.exe
Opciones adicionales en lнnea de comandos : -6 -V %s


TOC del CD extraido

Pista | Inicio | Duraciуn | Sector inicial | Sector final
––––––––––––––––––––––––––––––-
1 | 0:00.00 | 5:08.35 | 0 | 23134
2 | 5:08.35 | 7:11.62 | 23135 | 55521
3 | 12:20.22 | 3:21.38 | 55522 | 70634
4 | 15:41.60 | 4:24.07 | 70635 | 90441
5 | 20:05.67 | 4:39.00 | 90442 | 111366
6 | 24:44.67 | 4:10.13 | 111367 | 130129
7 | 28:55.05 | 6:47.25 | 130130 | 160679
8 | 35:42.30 | 5:41.12 | 160680 | 186266
9 | 41:23.42 | 5:52.58 | 186267 | 212724
10 | 47:16.25 | 2:54.67 | 212725 | 225841
11 | 50:11.17 | 4:40.70 | 225842 | 246911
12 | 54:52.12 | 9:36.50 | 246912 | 290161
13 | 64:28.62 | 5:25.15 | 290162 | 314551
14 | 69:54.02 | 4:58.00 | 314552 | 336901


Gama de estados y errores

Seleccionar gama

Nombre de Archivo E:\Mъsica\EAC\RUSH\Chronicles\RUSH - Chronicles [Disc 1] - Japan (AMCY-327).wav

Nivel Pico 100.0 %
Gama de Calidad 100.0 %
Test CRC 984FFB30
Copiar CRC 984FFB30
Copia OK

Sin Errores


Resumen AccurateRip

Pista 1 no se puede verificar como preciso (confianza 4) [AB383FF6], AccurateRip devuelto [B100BAAC]
Pista 2 no se puede verificar como preciso (confianza 4) [B4FBE734], AccurateRip devuelto [4A025074]
Pista 3 no se puede verificar como preciso (confianza 4) [D417777B], AccurateRip devuelto [B3084292]
Pista 4 no se puede verificar como preciso (confianza 4) [35F17DBD], AccurateRip devuelto [D3F056B5]
Pista 5 no se puede verificar como preciso (confianza 4) [B3C06546], AccurateRip devuelto [DDF9AF84]
Pista 6 no se puede verificar como preciso (confianza 4) [8C92DD49], AccurateRip devuelto [EE0487C9]
Pista 7 no se puede verificar como preciso (confianza 4) [EFBF5FF0], AccurateRip devuelto [FDD7B2DD]
Pista 8 no se puede verificar como preciso (confianza 4) [70C827C7], AccurateRip devuelto [C68E4992]
Pista 9 no se puede verificar como preciso (confianza 4) [D9227A8B], AccurateRip devuelto [6F9A3493]
Pista 10 no se puede verificar como preciso (confianza 4) [D4007695], AccurateRip devuelto [3DC92BC6]
Pista 11 no se puede verificar como preciso (confianza 4) [BEBC0B3D], AccurateRip devuelto [0A50B212]
Pista 12 no se puede verificar como preciso (confianza 4) [5855696D], AccurateRip devuelto [03824D4F]
Pista 13 no se puede verificar como preciso (confianza 4) [989686C3], AccurateRip devuelto [04BC08C2]
Pista 14 no se puede verificar como preciso (confianza 4) [AF8F7768], AccurateRip devuelto [28E0FC62]

No se verificarб ninguna pista como precisa
Puede que tengas una ediciуn diferente a la(s) de la base de datos

Final del Informe

Exact Audio Copy V0.99 prebeta 5 from 4. May 2009

Archivo Log de extracciones desde 4. Diciembre 2013, 21:27

RUSH / Chronicles [Disc 2] - Japan (AMCY-328)

Usar unidad : HL-DT-STDVDRAM GH22NS70 Adapter: 0 ID: 0

Modo de Lectura : Seguro
Utilizar Corriente Exacta : Sн
Descartar Audio cachй : Sн
Utilizar los punteros C2 : No

Correcciуn de Desplazamiento de Lectura : 667
Sobreleer tanto en Lead-In como en Lead-Out : No
Rellenar las muestras faltantes con silencios : Sн
Eliminar silencios inicial y final : No
Se han usado muestras nulas en los cбlculos CRC : Sн
Interfaz usada : Interfaz propio de Win32 para Windowns NT y 2000

Formato de Salida utilizado : Compresor definido por el usuario
Bitrate seleccionado : 32 kBit/s
Calidad : Alta
Aсadir Etiqueta ID3 : No
Compresor de linea de comandos : C:\Program Files (x86)\Exact Audio Copy\Flac\flac.exe
Opciones adicionales en lнnea de comandos : -6 -V %s


TOC del CD extraido

Pista | Inicio | Duraciуn | Sector inicial | Sector final
––––––––––––––––––––––––––––––-
1 | 0:00.00 | 4:37.67 | 0 | 20841
2 | 4:37.67 | 6:09.55 | 20842 | 48571
3 | 10:47.47 | 4:22.23 | 48572 | 68244
4 | 15:09.70 | 3:47.32 | 68245 | 85301
5 | 18:57.27 | 5:34.35 | 85302 | 110386
6 | 24:31.62 | 3:42.13 | 110387 | 127049
7 | 28:14.00 | 4:58.57 | 127050 | 149456
8 | 33:12.57 | 5:12.58 | 149457 | 172914
9 | 38:25.40 | 5:35.55 | 172915 | 198094
10 | 44:01.20 | 5:06.45 | 198095 | 221089
11 | 49:07.65 | 4:33.62 | 221090 | 241626
12 | 53:41.52 | 5:10.08 | 241627 | 264884
13 | 58:51.60 | 5:42.22 | 264885 | 290556
14 | 64:34.07 | 5:01.35 | 290557 | 313166


Gama de estados y errores

Seleccionar gama

Nombre de Archivo E:\Mъsica\EAC\Rush\RUSH - Chronicles [Disc 2] - Japan (AMCY-328).wav

Nivel Pico 100.0 %
Gama de Calidad 100.0 %
Test CRC 2C3AF9A8
Copiar CRC 2C3AF9A8
Copia OK

Sin Errores


Resumen AccurateRip

Pista 1 no se puede verificar como preciso (confianza 4) [5733C360], AccurateRip devuelto [DD3A9498]
Pista 2 no se puede verificar como preciso (confianza 4) [F64D6B8B], AccurateRip devuelto [65D02FD8]
Pista 3 no se puede verificar como preciso (confianza 4) [0241C51F], AccurateRip devuelto [E92F035F]
Pista 4 no se puede verificar como preciso (confianza 4) [452BB2C0], AccurateRip devuelto [C5FC9E7F]
Pista 5 no se puede verificar como preciso (confianza 4) [277F8C2C], AccurateRip devuelto [76D940B5]
Pista 6 no se puede verificar como preciso (confianza 4) [595ED4F9], AccurateRip devuelto [66C5D179]
Pista 7 no se puede verificar como preciso (confianza 4) [C4E1FEF1], AccurateRip devuelto [891E801A]
Pista 8 no se puede verificar como preciso (confianza 4) [2F2B2A3A], AccurateRip devuelto [3E2E6AC4]
Pista 9 no se puede verificar como preciso (confianza 4) [4A161DB9], AccurateRip devuelto [834766CB]
Pista 10 no se puede verificar como preciso (confianza 4) [CAF904B5], AccurateRip devuelto [1CA339A8]
Pista 11 no se puede verificar como preciso (confianza 4) [292B3B87], AccurateRip devuelto [E9F477A4]
Pista 12 no se puede verificar como preciso (confianza 4) [12FBB8F8], AccurateRip devuelto [B051C16B]
Pista 13 no se puede verificar como preciso (confianza 4) [FA71A2AA], AccurateRip devuelto [C2E37B8C]
Pista 14 no se puede verificar como preciso (confianza 4) [BEBEFC68], AccurateRip devuelto [ECFEE46D]

No se verificarб ninguna pista como precisa
Puede que tengas una ediciуn diferente a la(s) de la base de datos

Final del Informe


Many thanks to the original uploader: jarpomarx