Tags
Language
Tags

Ry Cooder - Get Rhythm (1987) [Japanese Edition 2009]

Posted By: gribovar
Ry Cooder - Get Rhythm (1987) [Japanese Edition 2009]

Ry Cooder - Get Rhythm (1987) [Japanese Edition 2009]
EAC Rip | APE (image+.cue+log) - 258 MB | MP3 CBR 320 kbps (LAME 3.93) - 96 MB | Covers - 13 MB
Genre: Blues, Blues Rock, Country Rock | RAR 3% Rec. | Label: Warner Music Japan (WPCR-13699)

"The Musician's Musician." "The Master of the Eclectic." There are probably a dozen more titles by which this "guitar player" is known. To even refer to him as a guitar player is probably a gross mislabeling of this musician. He defies any sort of categorization; this is his greatest strength and for some his weakness. The theme for these nine cuts is rhythm of all different ilk. Listen to his version of "All Shook Up," more bop and rhythm than Elvis could put into four of his songs. It seems musicians line up to play with him, and they feel he did them a favor by letting them play on his albums. He always gives them plenty of space to do what they do. This CD will make the dead start tapping their toes.
Tracklist:
01. Get Rhythm
02. Low-Commotion
03. Going Back to Okinawa
04. 13 Question Method
05. Women Will Rule the World
06. All Shook Up
07. I Can Tell by the Way You Smell
08. Across the Borderline
09. Let's Have a Ball

Total time: 40:57

Exact Audio Copy V0.99 prebeta 5 from 4. May 2009

EAC extraction logfile from 4. July 2010, 12:42

Ry Cooder / Get Rhythm

Used drive : PLEXTOR DVDR PX-810SA Adapter: 7 ID: 0

Read mode : Secure
Utilize accurate stream : Yes
Defeat audio cache : Yes
Make use of C2 pointers : No

Read offset correction : 48
Overread into Lead-In and Lead-Out : No
Fill up missing offset samples with silence : Yes
Delete leading and trailing silent blocks : No
Null samples used in CRC calculations : Yes
Used interface : Native Win32 interface for Win NT & 2000

Used output format : Internal WAV Routines
Sample format : 44.100 Hz; 16 Bit; Stereo


TOC of the extracted CD

Track | Start | Length | Start sector | End sector
––––––––––––––––––––––––––––-
1 | 0:00.00 | 3:17.68 | 0 | 14842
2 | 3:17.68 | 3:09.64 | 14843 | 29081
3 | 6:27.57 | 4:41.62 | 29082 | 50218
4 | 11:09.44 | 3:39.33 | 50219 | 66676
5 | 14:49.02 | 5:53.29 | 66677 | 93180
6 | 20:42.31 | 3:31.25 | 93181 | 109030
7 | 24:13.56 | 4:33.24 | 109031 | 129529
8 | 28:47.05 | 6:18.00 | 129530 | 157879
9 | 35:05.05 | 5:51.53 | 157880 | 184257


Range status and errors

Selected range

Filename C:\Audio\Ry Cooder - Get Rhythm.wav

Peak level 100.0 %
Range quality 100.0 %
Copy CRC 83825144
Copy OK

No errors occurred


AccurateRip summary

Track 1 accurately ripped (confidence 1) [E564B6A2]
Track 2 accurately ripped (confidence 1) [3647C7A7]
Track 3 accurately ripped (confidence 1) [0771D7ED]
Track 4 accurately ripped (confidence 1) [3AA6665C]
Track 5 accurately ripped (confidence 1) [6DBFB34B]
Track 6 accurately ripped (confidence 1) [3B5C9AB7]
Track 7 accurately ripped (confidence 1) [67D3205A]
Track 8 accurately ripped (confidence 1) [D35E77C0]
Track 9 accurately ripped (confidence 1) [652BAA17]

All tracks accurately ripped

End of status report

[CUETools log; Date: 06.09.2021 13:42:24; Version: 2.1.4]
[CTDB TOCID: IVm0p_GuIJNVN.JVACtIkhluKrY-] found.
Track | CTDB Status
1 | (13/15) Accurately ripped
2 | (13/15) Accurately ripped
3 | (15/15) Accurately ripped
4 | (15/15) Accurately ripped
5 | (13/15) Accurately ripped
6 | (13/15) Accurately ripped
7 | (15/15) Accurately ripped
8 | (15/15) Accurately ripped
9 | (15/15) Accurately ripped
[AccurateRip ID: 000cbc8d-005fb8d5-80099809] found.
Track [ CRC | V2 ] Status
01 [e564b6a2|9c201510] (00+13/13) Accurately ripped
02 [3647c7a7|affed230] (00+12/12) Accurately ripped
03 [0771d7ed|3cff1044] (00+12/12) Accurately ripped
04 [3aa6665c|8455dc60] (00+13/13) Accurately ripped
05 [6dbfb34b|13a69e9e] (00+12/12) Accurately ripped
06 [3b5c9ab7|6f92f6cb] (00+13/13) Accurately ripped
07 [67d3205a|65da898f] (00+12/12) Accurately ripped
08 [d35e77c0|50d7362e] (00+12/12) Accurately ripped
09 [652baa17|44213991] (00+13/13) Accurately ripped

Track Peak [ CRC32 ] [W/O NULL] [ LOG ]
– 100,0 [83825144] [ADEC7FE2] CRC32
01 100,0 [78B5E5D8] [A520F5A1]
02 100,0 [55F39828] [D1DC196E]
03 100,0 [1AB56FAB] [9A7CE9CE]
04 100,0 [988AC070] [456E118A]
05 100,0 [9F9EF2EB] [048552C8]
06 100,0 [3E77DB19] [4548D8AA]
07 100,0 [67BE622E] [E75C9D07]
08 100,0 [F8EAC8C8] [64F2008C]
09 100,0 [871C8322] [828FF059]

Thanks to desperado

See also:
Ry Cooder - Crossroads [OST] (1986) [Japanese Edition 2009]