Subcategories
Tags
Language
Tags

SFJazz Collective - SFJazz Collective (2005)

Posted By: gribovar
SFJazz Collective - SFJazz Collective (2005)

SFJazz Collective - SFJazz Collective (2005)
EAC Rip | FLAC (tracks+.cue+log) - 477 MB | MP3 CBR 320 kbps (LAME 3.93) - 174 MB | Covers - 130 MB
Genre: Jazz, Post-Bop | RAR 3% Rec. | Label: Nonesuch Records (7559-79866-2)

In its admirable quest to issue fine recordings regardless of genre or outward commercial appeal, Nonesuch Records has released a live disc of the exciting, cross-generational SF Jazz Collective. This self-titled set is taken from a triple-CD collection available only through its website. The band is a who's who of jazz talent, and includes the venerable vibraphonist Bobby Hutcherson, trumpeter Nicholas Payton, saxophonists Joshua Redman (the group's artistic director), and Miguel Zenón, drummer Brian Blade, pianist Renee Rosnes, bassist Robert Hurst and trombonist Josh Roseman, with arrangements by Gil Goldstein. The group picks the work of a jazz composer's top study every year, and for 2004 it was Ornette Coleman. There are three of his compositions on this release, along with works by bandmembers. The Coleman tunes are revelatory with brilliant work by the two saxophonists. The ensemble is tight, focused, and swings hard. "Peace" is a knotty tune with many twists and turns in its head, it is flawless and inspired. Rosnes does a fine job of piloting the band through the work which wasn't scored with a piano in mind. And in the soloing there is no ego-tripping - the tune and the band are served. Likewise with the gorgeous "Una Muy Bonita," with its staggered rhythms and bright melodic frame. Hurst's bassing here is the engine, nurturing the rhythm along seamlessly as the front-line players sift and sing through the changes. The interplay between Payton and Zenón is delightful. The originals may not be as memorable as Coleman's, but all are notable. Zenón's "Lingala" opens the set in a minor key head of vibes and Payton's elegiac trumpet before the tune breaks open into virtual song. The bluesy Eastern mode of Redman's "Rise and Fall" with its long, spacious line is just lovely, as is Rosnes' complex, lilting "Of This Day's Journey," with a beautifully tender and empathic solo by Hutcherson. The vibist's playful yet dramatic "March Madness" closes out this disc. It's tensile, quiet opening is turned upside-down a minute in as Hurst begins strutting out front before the front line answers in harmonic counterpoint. Payton's solo, with its taste, fire and supreme melodic sense, is the high point of the tune. This is as impressive a debut as we've heard in recent years, by a band who not only play like one, but who respect the jazz tradition enough to actually extend it with creativity, vision, and sensitivity in the current millennium.
Tracklist:
01. Lingala
02. Peace
03. Of This Day's Journey
04. When Will The Blues Leave
05. Rise And Fall
06. Una Muy Bonita
07. March Madness

Total time: 01:13:54

Exact Audio Copy V1.0 beta 3 from 29. August 2011

EAC extraction logfile from 22. October 2013, 21:16

SFJazz Collective / SFJazz Collective

Used drive : HL-DT-STDVD-RAM GSA-H55N Adapter: 0 ID: 1

Read mode : Secure
Utilize accurate stream : Yes
Defeat audio cache : Yes
Make use of C2 pointers : No

Read offset correction : 102
Overread into Lead-In and Lead-Out : Yes
Fill up missing offset samples with silence : Yes
Delete leading and trailing silent blocks : No
Null samples used in CRC calculations : Yes
Used interface : Native Win32 interface for Win NT & 2000
Gap handling : Appended to previous track

Used output format : User Defined Encoder
Selected bitrate : 128 kBit/s
Quality : High
Add ID3 tag : No
Command line compressor : G:\Program Files\Exact Audio Copy\Encoder\flac.exe
Additional command line options : -V -8 -T "Genre=%genre%" -T "Artist=%artist%" -T "Title=%title%" -T "Album=%albumtitle%" -T "Date=%year%" -T "Tracknumber=%tracknr%" -T "Comment=EAC1.0b3 FLAC -8" %source%


TOC of the extracted CD

Track | Start | Length | Start sector | End sector
––––––––––––––––––––––––––––-
1 | 0:00.00 | 12:27.12 | 0 | 56036
2 | 12:27.12 | 10:09.55 | 56037 | 101766
3 | 22:36.67 | 13:34.18 | 101767 | 162834
4 | 36:11.10 | 4:50.15 | 162835 | 184599
5 | 41:01.25 | 13:00.70 | 184600 | 243169
6 | 54:02.20 | 11:03.13 | 243170 | 292907
7 | 65:05.33 | 8:49.02 | 292908 | 332584


Track 1

Filename F:\WAV\01 - Lingala.wav

Pre-gap length 0:00:02.00

Peak level 98.7 %
Extraction speed 5.8 X
Track quality 100.0 %
Test CRC D7590894
Copy CRC D7590894
Accurately ripped (confidence 3) [5DC58DBE] (AR v2)
Copy OK

Track 2

Filename F:\WAV\02 - Peace.wav

Pre-gap length 0:00:02.12

Peak level 98.7 %
Extraction speed 6.9 X
Track quality 100.0 %
Test CRC AAF672B1
Copy CRC AAF672B1
Accurately ripped (confidence 3) [480CFA1A] (AR v2)
Copy OK

Track 3

Filename F:\WAV\03 - Of This Day's Journey.wav

Pre-gap length 0:00:01.49

Peak level 98.7 %
Extraction speed 7.9 X
Track quality 100.0 %
Test CRC C64D74E4
Copy CRC C64D74E4
Accurately ripped (confidence 3) [3E9FC6F5] (AR v2)
Copy OK

Track 4

Filename F:\WAV\04 - When Will The Blues Leave.wav

Pre-gap length 0:00:01.28

Peak level 98.7 %
Extraction speed 7.8 X
Track quality 100.0 %
Test CRC CB9DC612
Copy CRC CB9DC612
Accurately ripped (confidence 3) [C77DC708] (AR v2)
Copy OK

Track 5

Filename F:\WAV\05 - Rise And Fall.wav

Pre-gap length 0:00:02.16

Peak level 98.7 %
Extraction speed 8.9 X
Track quality 100.0 %
Test CRC 951BD15F
Copy CRC 951BD15F
Accurately ripped (confidence 3) [F32BFD69] (AR v2)
Copy OK

Track 6

Filename F:\WAV\06 - Una Muy Bonita.wav

Pre-gap length 0:00:02.09

Peak level 98.7 %
Extraction speed 9.5 X
Track quality 100.0 %
Test CRC 4C8D0E20
Copy CRC 4C8D0E20
Accurately ripped (confidence 3) [17178BD1] (AR v2)
Copy OK

Track 7

Filename F:\WAV\07 - March Madness.wav

Pre-gap length 0:00:02.19

Peak level 98.7 %
Extraction speed 8.1 X
Track quality 100.0 %
Test CRC 6BAA2F4A
Copy CRC 6BAA2F4A
Accurately ripped (confidence 3) [EDDE7EA5] (AR v2)
Copy OK


All tracks accurately ripped

No errors occurred

End of status report

==== Log checksum B72DFBC3AA3D86FB4920B34499D7D80D5B9B9AD33B6847F747B0FF25BAE3AF5A ====

[CUETools log; Date: 23.02.2021 17:33:08; Version: 2.1.4]
[CTDB TOCID: IbnuKsgTvt5AatgX4pR_PypRCbw-] found.
Track | CTDB Status
1 | (40/43) Accurately ripped
2 | (43/43) Accurately ripped
3 | (43/43) Accurately ripped
4 | (43/43) Accurately ripped
5 | (43/43) Accurately ripped
6 | (43/43) Accurately ripped
7 | (43/43) Accurately ripped
[AccurateRip ID: 0014f6ce-007c89ec-63115207] found.
Track [ CRC | V2 ] Status
01 [3779588a|5dc58dbe] (00+05/51) Accurately ripped
02 [8fc3e612|480cfa1a] (00+05/51) Accurately ripped
03 [7a69e3bd|3e9fc6f5] (00+05/51) Accurately ripped
04 [a751dc93|c77dc708] (00+05/51) Accurately ripped
05 [11d2047c|f32bfd69] (00+05/51) Accurately ripped
06 [3cf18a28|17178bd1] (00+05/50) Accurately ripped
07 [57fdeb3b|edde7ea5] (00+05/50) Accurately ripped
Offsetted by 640:
01 [287f188a] (12/51) Accurately ripped
02 [2fa5e712] (12/51) Accurately ripped
03 [eea37a3d] (12/51) Accurately ripped
04 [08901113] (12/51) Accurately ripped
05 [81d1c17c] (12/51) Accurately ripped
06 [a7f4e9a8] (12/50) Accurately ripped
07 [546773bb] (12/50) Accurately ripped
Offsetted by 646:
01 [e38e598a] (08/51) Accurately ripped
02 [56bf38ae] (08/51) Accurately ripped
03 [4d540473] (08/51) Accurately ripped
04 [e7dfd991] (08/51) Accurately ripped
05 [96de8da8] (08/51) Accurately ripped
06 [edc28b5a] (08/50) Accurately ripped
07 [345ed769] (08/50) Accurately ripped

Track Peak [ CRC32 ] [W/O NULL] [ LOG ]
– 98,7 [2CA8F9E3] [A3A25743]
01 98,7 [D7590894] [0038D5B5] CRC32
02 98,7 [AAF672B1] [D9266360] CRC32
03 98,7 [C64D74E4] [82834424] CRC32
04 98,7 [CB9DC612] [1A8EB194] CRC32
05 98,7 [951BD15F] [87A17F43] CRC32
06 98,7 [4C8D0E20] [F4493FA6] CRC32
07 98,7 [6BAA2F4A] [7652C2D6] CRC32

Thanks to simple.i