Subcategories
Tags
Language
Tags

Sanna Salminen, Vox Aurea - Pato: Järvelä, Tuan, Kleemola, Moilanen, Lummi (2020)

Posted By: ArlegZ
Sanna Salminen, Vox Aurea - Pato: Järvelä, Tuan, Kleemola, Moilanen, Lummi (2020)

Sanna Salminen, Vox Aurea - Pato: Järvelä, Tuan, Kleemola, Moilanen, Lummi (2020)
EAC | FLAC | Image (Cue & Log) ~ 282 Mb | Total time: 63:49 | Scans included
Classical | Label: Alba Records | # NCD 58 | Recorded: 2020

The record Pato (Dam) depicts the power of singing together: the happiness of belonging and being united, the comfort of liberation from difficult feelings, the delight of sharing joy, and empowerment even amid difficult challenges. Singing together makes you stop in the very moment to experience beauty. The songs on the record flow through moments of refuge, otherness and loneliness into being united with oneself, the other and nature. The process of making this record also underlines the power of singing: a major part of the practice work took place in the times of isolation on spring 2020, due to restrictions on singing together caused by the pandemic. We held an intensive five-day training period in August, during which the choristers found their voice and each other again. In the end, only one weekend was needed for the recording session, even though two were planned, and all tracks on the record have been recorded as whole pieces. The opportunity to sing together as a choir after the long isolation brought about a flow which enabled everyone to fully concentrate. Finally, the power of singing together made it possible to finalize the whole record: another weekend session for recording would not have been possible to arrange, due to the circumstances. Vox Aurea childrens choir, established in 1968, is the representative choir of the basic education services in Jyväskylä. Vox Aurea has sustained its high level as one of the top choirs in Finland and its level is also acknowledged internationally. In addition to concert performances and tours, the choir has taken part and been awarded prizes in various national and international choir competitions and it has also published several recordings representing the diversity of choir music. The choir consists of 50 singers aged 11 to 18.

Performer:
Vox Aurea children’s choir
Sanna Salminen, conductor

Track List:
Aili Järvelä
01. Pato
Eric Tuan
Crossings:
02. Abuelita says goodbye
03. Caravan
04. Barbed wire fence
05. From desert wastes
Antti Kleemola
06. Kuulun
Sanna Salminen
07. Like me
About People and Loneliness:
08. You are not enough
09. Would you be my friend?
10. I feel so good
11. Solitude
Olli Moilanen
12. I never saw…
Veera Lummi
13. Taivaalla on tilaa


Exact Audio Copy V1.5 from 20. February 2020

EAC extraction logfile from 1. May 2021, 0:28

Vox Aurea / Pato

Used drive : ASUS SDRW-08U7M-U Adapter: 1 ID: 0

Read mode : Secure
Utilize accurate stream : Yes
Defeat audio cache : Yes
Make use of C2 pointers : No

Read offset correction : 6
Overread into Lead-In and Lead-Out : No
Fill up missing offset samples with silence : Yes
Delete leading and trailing silent blocks : No
Null samples used in CRC calculations : Yes
Used interface : Native Win32 interface for Win NT & 2000

Used output format : User Defined Encoder
Selected bitrate : 128 kBit/s
Quality : High
Add ID3 tag : No
Command line compressor : C:\Program Files (x86)\Exact Audio Copy\Flac\flac.exe
Additional command line options : -V -8 -T "Date=%year%" -T "Genre=%genre%" %source%


TOC of the extracted CD

Track | Start | Length | Start sector | End sector
––––––––––––––––––––––––––––-
1 | 0:00.00 | 5:09.07 | 0 | 23181
2 | 5:09.07 | 5:11.50 | 23182 | 46556
3 | 10:20.57 | 6:45.05 | 46557 | 76936
4 | 17:05.62 | 4:03.15 | 76937 | 95176
5 | 21:09.02 | 4:31.32 | 95177 | 115533
6 | 25:40.34 | 4:48.18 | 115534 | 137151
7 | 30:28.52 | 5:43.47 | 137152 | 162923
8 | 36:12.24 | 3:18.11 | 162924 | 177784
9 | 39:30.35 | 4:58.22 | 177785 | 200156
10 | 44:28.57 | 2:45.41 | 200157 | 212572
11 | 47:14.23 | 4:11.28 | 212573 | 231425
12 | 51:25.51 | 8:20.47 | 231426 | 268972
13 | 59:46.23 | 4:11.36 | 268973 | 287833


Range status and errors

Selected range

Filename C:\temp\Vox Aurea - Pato - 2020\Pato.wav

Peak level 77.1 %
Extraction speed 4.9 X
Range quality 100.0 %
Test CRC 09474FBF
Copy CRC 09474FBF
Copy OK

No errors occurred


AccurateRip summary

Track 1 not present in database
Track 2 not present in database
Track 3 not present in database
Track 4 not present in database
Track 5 not present in database
Track 6 not present in database
Track 7 not present in database
Track 8 not present in database
Track 9 not present in database
Track 10 not present in database
Track 11 not present in database
Track 12 not present in database
Track 13 not present in database

None of the tracks are present in the AccurateRip database

End of status report

==== Log checksum A9FE8DE4B8EAAB7E44279614FD9418C7059DF582427D89AE27421A1BE8BD38B5 ====

Sanna Salminen, Vox Aurea - Pato: Järvelä, Tuan, Kleemola, Moilanen, Lummi (2020)

Thanks to the original releaser