Subcategories

Sara Mingardo, Cenacolo Musicale - Bononcini, Lotti, Steffani: Se con stille frequenti. Duetti da camera (2016)

Posted By: ArlegZ
Sara Mingardo, Cenacolo Musicale - Bononcini, Lotti, Steffani: Se con stille frequenti. Duetti da camera (2016)

Sara Mingardo, Cenacolo Musicale - Bononcini, Lotti, Steffani: Se con stille frequenti. Duetti da camera (2016)
EAC | FLAC | Image (Cue & Log) ~ 341 Mb | Total time: 62:51 | Scans included
Classical | Label: Arcana | A424 | Recorded: 2014, 2015

In the Baroque period, the duetto da camera, usually conceived for two equal voices and continuo, was an important form of vocal chamber music, of which innumerable examples are found in the works of composers associated with Venice, the leading protagonist in the history of this genre. Venetian Sara Mingardo is joined by a large group of young, talented solo female voices (Silva Frigato, Lea Desandre… ) in this amazing project, where masterpieces by the leading composers of the time have been entrusted to the voices best suited to highlight the respective particular musical content. Included in this recording are several previously unpublished and unperformed works, which have been newly transcribed and edited by the harpsichordist Edward Smith. At the heart of the programme, Sara Mingardo leaves her colleagues for a moment to appear as soloist in Fuggi pur, o crudele by Francesco Lucio, a splendid and typical lamento recorded here for the first time and destined to become a big hit.

Performer:
Sara Mingardo, contralto
Francesca Biliotti, contralto
Loriana Castellano, mezzosoprano
Lisa Castrignanò, soprano
Giorgia Cinciripi, soprano
Lea Desandre, mezzosoprano
Silvia Frigato, soprano
Lucia Napoli, mezzosoprano
Cenacolo Musicale

Track List:
Agostino Steffani (1654-1728): Begl’occhi, oh Dio, non più:
01. Begl’occhi, oh Dio, non più
02. Clori mia, s'il cor t'ingombra
03. Per te, mia vita, moro
04. Se la tua gelosia
05. Clori mia, deh, ferma alquanto
Antonio Lotti (1666-1740): Duetti, terzetti e madrigali a più voci "Crudeltà rimproverata":
06. Se con stille frequenti
07. Solo il cor di Mirtilla
08. Poi che fiera e crudel sempre egualmente
Agostino Steffani: Ribellatevi, o pensieri:
09. Ribellatevi, o pensieri
10. Se perdei per infida bellezza / Di schernirmi hai finito, Cupido
Antonio Lotti: Duetti, terzetti e madrigali a più voci "Querela amorosa":
11. Ben dovrei, occhi leggiadri
12. E scordandomi il mio duolo (Adagio)
13. E non posso col mirarvi (Allegro - Adagio)
Francesco Lucio (1628-1658): Arie a voce sola, Libro Primo:
14. Fuggi pur, o crudele
Giovanni Bononcini (1670-1747): Duetti da camera, Op. 8 "Sempre piango, e dir non sò":
15. Sempre piango / Sempre rido
16. Recitativo "No, restane in pace"
17. Aria "Non sei più l’idolo moi"
18. Recitativo "Cintia ingrata e crudele"
19. Aria "Al bel dardo d'un tuo sguardo"
20. Recitativo "Sono questi del cor gl'ultimi fiati" / Aria "Ché languendo / Ché ingannando"
21. Aria "Chi d'amor tra le catene"
22. Aria "Bella sì ma crudel / Vago sì ma infedel"
23. Recitativo "Ma dì, perché con ingiuste querele" / Aria "Non ha il mondo"
24. Recitativo "Sei tu fido, mio ben?" / Aria "Con novi e dolci modi"
25. Aria "Amore è quel bambin" / Aria "Col volto suo divino"
26. Recitativo "Ceda dunque ogni petto" / Aria "Non conosce piacer"
Agostino Steffani: Testimonianza di Fede "Ho scherzato in verità":
27. Ho scherzato in verità
28. Sai ben tu, caro tesoro
29. Sai ben tu che non poss'io


Exact Audio Copy V1.0 beta 3 from 29. August 2011

EAC extraction logfile from 20. May 2018, 13:34

Mingardo, Cenacolo Musicale / Bononcini, Lotti, Steffani - Duetti da camera

Used drive : hp DVD-RAM UJ8D1 Adapter: 0 ID: 0

Read mode : Secure
Utilize accurate stream : Yes
Defeat audio cache : Yes
Make use of C2 pointers : No

Read offset correction : 6
Overread into Lead-In and Lead-Out : No
Fill up missing offset samples with silence : Yes
Delete leading and trailing silent blocks : No
Null samples used in CRC calculations : Yes
Used interface : Native Win32 interface for Win NT & 2000

Used output format : User Defined Encoder
Selected bitrate : 768 kBit/s
Quality : High
Add ID3 tag : No
Command line compressor : C:\Program Files (x86)\Exact Audio Copy\FLAC\FLAC.EXE
Additional command line options : -8 -V -T "ARTIST=%artist%" -T "TITLE=%title%" -T "ALBUM=%albumtitle%" -T "DATE=%year%" -T "TRACKNUMBER=%tracknr%" -T "GENRE=%genre%" -T "PERFORMER=%albuminterpret%" -T "COMPOSER=%composer%" %haslyrics%–tag-from-file=LYRICS="%lyricsfile%"%haslyrics% -T "ALBUMARTIST=%albumartist%" -T "DISCNUMBER=%cdnumber%" -T "TOTALDISCS=%totalcds%" -T "TOTALTRACKS=%numtracks%" -T "COMMENT=%comment%" %source% -o %dest%


TOC of the extracted CD

Track | Start | Length | Start sector | End sector
––––––––––––––––––––––––––––-
1 | 0:00.00 | 3:01.13 | 0 | 13587
2 | 3:01.13 | 0:24.50 | 13588 | 15437
3 | 3:25.63 | 1:36.56 | 15438 | 22693
4 | 5:02.44 | 1:08.33 | 22694 | 27826
5 | 6:11.02 | 2:55.65 | 27827 | 41016
6 | 9:06.67 | 3:34.24 | 41017 | 57090
7 | 12:41.16 | 1:15.08 | 57091 | 62723
8 | 13:56.24 | 2:03.54 | 62724 | 72002
9 | 16:00.03 | 2:23.42 | 72003 | 82769
10 | 18:23.45 | 2:35.63 | 82770 | 94457
11 | 20:59.33 | 2:47.29 | 94458 | 107011
12 | 23:46.62 | 1:12.60 | 107012 | 112471
13 | 24:59.47 | 1:35.20 | 112472 | 119616
14 | 26:34.67 | 3:28.10 | 119617 | 135226
15 | 30:03.02 | 4:19.48 | 135227 | 154699
16 | 34:22.50 | 0:26.02 | 154700 | 156651
17 | 34:48.52 | 2:45.14 | 156652 | 169040
18 | 37:33.66 | 0:51.18 | 169041 | 172883
19 | 38:25.09 | 2:44.23 | 172884 | 185206
20 | 41:09.32 | 2:27.52 | 185207 | 196283
21 | 43:37.09 | 3:01.06 | 196284 | 209864
22 | 46:38.15 | 2:46.27 | 209865 | 222341
23 | 49:24.42 | 1:41.54 | 222342 | 229970
24 | 51:06.21 | 1:00.12 | 229971 | 234482
25 | 52:06.33 | 1:31.31 | 234483 | 241338
26 | 53:37.64 | 3:09.67 | 241339 | 255580
27 | 56:47.56 | 1:12.70 | 255581 | 261050
28 | 58:00.51 | 2:24.25 | 261051 | 271875
29 | 60:25.01 | 2:26.58 | 271876 | 282883


Range status and errors

Selected range

Filename C:\cunctator\Bononcini, Lotti, Steffani - Duetti da camera - Mingardo, Cenacolo Musicale.wav

Peak level 97.8 %
Extraction speed 4.9 X
Range quality 100.0 %
Test CRC 1D2F0631
Copy CRC 1D2F0631
Copy OK

No errors occurred


AccurateRip summary

Track 1 accurately ripped (confidence 1) [A7452D6D] (AR v2)
Track 2 accurately ripped (confidence 1) [AC731595] (AR v2)
Track 3 accurately ripped (confidence 1) [24EBE902] (AR v2)
Track 4 accurately ripped (confidence 1) [7EB6B9A1] (AR v2)
Track 5 accurately ripped (confidence 1) [88FD0C65] (AR v2)
Track 6 accurately ripped (confidence 1) [C58EC2C1] (AR v2)
Track 7 accurately ripped (confidence 1) [403BB954] (AR v2)
Track 8 accurately ripped (confidence 1) [B6166E3A] (AR v2)
Track 9 accurately ripped (confidence 1) [81852E94] (AR v2)
Track 10 accurately ripped (confidence 1) [6DA0DAAC] (AR v2)
Track 11 accurately ripped (confidence 1) [E6ED1C0F] (AR v2)
Track 12 accurately ripped (confidence 1) [58CE8375] (AR v2)
Track 13 accurately ripped (confidence 1) [76C7A152] (AR v2)
Track 14 accurately ripped (confidence 1) [1A700F70] (AR v2)
Track 15 accurately ripped (confidence 1) [F7860895] (AR v2)
Track 16 accurately ripped (confidence 1) [0CCCDF15] (AR v2)
Track 17 accurately ripped (confidence 1) [3382AC45] (AR v2)
Track 18 accurately ripped (confidence 1) [C2E05323] (AR v2)
Track 19 accurately ripped (confidence 1) [5C3C5F19] (AR v2)
Track 20 accurately ripped (confidence 1) [C1AB6DFE] (AR v2)
Track 21 accurately ripped (confidence 1) [FF69A5A3] (AR v2)
Track 22 accurately ripped (confidence 1) [318986DF] (AR v2)
Track 23 accurately ripped (confidence 1) [A4ED6A7D] (AR v2)
Track 24 accurately ripped (confidence 1) [09E4E1A0] (AR v2)
Track 25 accurately ripped (confidence 1) [4A3B630D] (AR v2)
Track 26 accurately ripped (confidence 1) [5B973AC0] (AR v2)
Track 27 accurately ripped (confidence 1) [2A00F2A4] (AR v2)
Track 28 accurately ripped (confidence 1) [67E8EEB4] (AR v2)
Track 29 accurately ripped (confidence 1) [E39572F6] (AR v2)

All tracks accurately ripped

End of status report

==== Log checksum 40229F80215A209CC0FB1F7661A8F2F08D1B6DD338C447054C4347A95DC1B5D4 ====

Sara Mingardo, Cenacolo Musicale - Bononcini, Lotti, Steffani: Se con stille frequenti. Duetti da camera (2016)

Thanks to the original releaser