Subcategories

Sarah Brightman - La Luna (2000)

Posted By: v3122
Sarah Brightman - La Luna (2000)

Sarah Brightman - La Luna (2000)
EAC | Flac(Image) + Cue + Log & MP3 CBR 320Kbps
Eastwest, 8573-85915-2 | ~ 386 or 147 Mb | Scans(png) -> 705 Mb
Pop, Classical, Contemporary, Vocal

Broadway star Sarah Brightman lends her ethereal, angelic vocals to another combination of classical and pop, resulting in a solid, stirring collection. This outing, the ex-Mrs. Andrew Lloyd Webber adapts Rachmaninov ("How Fare This Spot"), Beethoven ("Figlio Perduto"), and Handel ("Solo Con Te") alongside the brothers Gibb and Simon and Garfunkel. The uncanny thing is how canny Brightman is at bridging the contemporary with the classics so that they seem timeless. She brings touches of adult contemporary, rock, and even, surprisingly enough, techno to the mix; some of these songs, "Here With Me" in particular, are crying out to be remixed as dance songs. Her crystalline soprano leads you on a sentimental journey through "Scarborough Fair" then lilts through a playful "Hijo de la Luna" without missing a beat. Especially successful is the last track, "First of May," as it was recorded live in South Africa. It shows that Brightman's talent doesn't need the production so many contemporary vocalists need to sound phenomenal. There is something melancholy in her expressive voice and in the production of each song on this album, so that even if you don't understand the language of the lyrics, you're left feeling a bit nostalgic, and the effect is not that of much of the plastic A/C market but one of genuine emotion. She doesn't manipulate you into feeling; she actually moves you. Overall, this album achieves some beautiful highs without being over the top.

by Bryan Buss, allmusic
Sarah Brightman - La Luna (2000):

Sarah Brightman - La Luna (2000)

Tracklist:

1. La Lune
2. Winter in July
3. Scarborough Fair
4. Figlio Perduto
5. A Whiter Shade of Pale
6. He Doesn't See Me
7. Serenade
8. How Fair This Place
9. Hijo de la Luna
10. Here With Me
11. La Califfa
12. This Love
13. Solo con Te
14. Gloomy Sunday
15. La Luna
Hidden track: Moon River

Exact Audio Copy V1.0 beta 3 from 29. August 2011

EAC extraction logfile from 18. April 2013, 19:07

Sarah Brightman / La Luna

Used drive : Optiarc BD RW BD-5300S Adapter: 3 ID: 0

Read mode : Secure
Utilize accurate stream : Yes
Defeat audio cache : Yes
Make use of C2 pointers : No

Read offset correction : 6
Overread into Lead-In and Lead-Out : No
Fill up missing offset samples with silence : Yes
Delete leading and trailing silent blocks : No
Null samples used in CRC calculations : Yes
Used interface : Installed external ASPI interface

Used output format : User Defined Encoder
Selected bitrate : 1024 kBit/s
Quality : High
Add ID3 tag : No
Command line compressor : C:\Program Files (x86)\Exact Audio Copy\Flac\flac.exe
Additional command line options : -8 -V -T "Date=%year%" -T "Genre=%genre%" -T "COMMENT=ripped by bvstudio®" %source%


TOC of the extracted CD

Track | Start | Length | Start sector | End sector
––––––––––––––––––––––––––––-
1 | 0:00.00 | 2:53.10 | 0 | 12984
2 | 2:53.10 | 4:32.20 | 12985 | 33404
3 | 7:25.30 | 4:11.20 | 33405 | 52249
4 | 11:36.50 | 4:37.07 | 52250 | 73031
5 | 16:13.57 | 3:39.38 | 73032 | 89494
6 | 19:53.20 | 4:29.07 | 89495 | 109676
7 | 24:22.27 | 1:16.55 | 109677 | 115431
8 | 25:39.07 | 2:09.33 | 115432 | 125139
9 | 27:48.40 | 4:27.57 | 125140 | 145221
10 | 32:16.22 | 5:23.48 | 145222 | 169494
11 | 37:39.70 | 2:38.02 | 169495 | 181346
12 | 40:17.72 | 6:21.30 | 181347 | 209951
13 | 46:39.27 | 3:06.35 | 209952 | 223936
14 | 49:45.62 | 3:47.60 | 223937 | 241021
15 | 53:33.47 | 7:22.58 | 241022 | 274229


Range status and errors

Selected range

Filename F:\Sarah Brightman\2000 - La Luna\Sarah Brightman - La Luna.wav

Peak level 99.7 %
Extraction speed 2.2 X
Range quality 100.0 %
Test CRC EC6F69BF
Copy CRC EC6F69BF
Copy OK

No errors occurred


AccurateRip summary

Track 1 accurately ripped (confidence 10) [AD9D42B7] (AR v2)
Track 2 accurately ripped (confidence 10) [B88FC270] (AR v2)
Track 3 accurately ripped (confidence 10) [EFD1CE43] (AR v2)
Track 4 accurately ripped (confidence 10) [6D90641B] (AR v2)
Track 5 accurately ripped (confidence 10) [56E1A734] (AR v2)
Track 6 accurately ripped (confidence 10) [D0F6856E] (AR v2)
Track 7 accurately ripped (confidence 10) [7D5A455F] (AR v2)
Track 8 accurately ripped (confidence 10) [7F34BACA] (AR v2)
Track 9 accurately ripped (confidence 10) [C1FE5EFD] (AR v2)
Track 10 accurately ripped (confidence 10) [A3AA4809] (AR v2)
Track 11 accurately ripped (confidence 9) [0BAA3604] (AR v2)
Track 12 accurately ripped (confidence 9) [6443C273] (AR v2)
Track 13 accurately ripped (confidence 10) [891C08DB] (AR v2)
Track 14 accurately ripped (confidence 8) [F353834A] (AR v2)
Track 15 accurately ripped (confidence 9) [2B74F353] (AR v2)

All tracks accurately ripped

End of status report

–– CUETools DB Plugin V2.1.4

[CTDB TOCID: GKm93aHPmgLzXE3AtnVLm_LdNkE-] found
Submit result: GKm93aHPmgLzXE3AtnVLm_LdNkE- has been confirmed
Track | CTDB Status
1 | (13/14) Accurately ripped, or (1/14) differs in 592 samples @01:51:44-01:51:45,01:51:54-01:51:55,01:51:74-01:52:00,01:52:09-01:52:10,01:52:19-01:52:20,01:58:66,01:59:30-01:59:31,02:00:05-02:00:06,02:00:15-02:00:16,02:00:25-02:00:26,02:00:45-02:00:46,02:03:30,02:05:39
2 | (14/14) Accurately ripped
3 | (14/14) Accurately ripped
4 | (14/14) Accurately ripped
5 | (14/14) Accurately ripped
6 | (13/14) Accurately ripped
7 | (14/14) Accurately ripped
8 | (14/14) Accurately ripped
9 | (14/14) Accurately ripped
10 | (14/14) Accurately ripped
11 | (14/14) Accurately ripped
12 | (14/14) Accurately ripped
13 | (14/14) Accurately ripped
14 | (14/14) Accurately ripped
15 | (13/14) Accurately ripped


==== Log checksum 827F367E2DBB0DA10C7FA032B08B325845F5030166BB359C1CA8DB9949BF7148 ====


[CUETools log; Date: 21.10.2017 20:14:43; Version: 2.1.5]
[AccurateRip ID: 001f61ad-01654940-e20e480f] database access error: Невозможно разрешить удаленное имя: 'www.accuraterip.com'.

Track Peak [ CRC32 ] [W/O NULL] [ LOG ]
– 99,7 [EC6F69BF] [98415C51] CRC32
01 67,1 [C7147B7C] [D5981745]
02 99,3 [F5C3F42F] [1A1A5843]
03 98,9 [F82AA6EE] [D86D6132]
04 98,8 [A888691C] [B130EF1C]
05 99,5 [9AB017B1] [6180EF34]
06 98,7 [122B4969] [3D020B82]
07 36,0 [7EEA64B8] [494DD566]
08 98,8 [A2E4B7B8] [8F0D549D]
09 99,1 [FB2E0C60] [8519E7EC]
10 99,2 [F87338E5] [7A9D3D3B]
11 99,2 [6814C7DB] [48729049]
12 99,7 [F7A7D70E] [8D040435]
13 98,5 [A9E927E0] [A88D155E]
14 98,8 [88272FA0] [A857E194]
15 98,3 [F047BBBA] [3CD67CE3]


Sarah Brightman - La Luna (2000)

All thanks go to the original releaser

Sarah Brightman or Sarah Brightman in my Blog

Download Sarah Brightman - La Luna (2000):