Tags
Language
Tags

Scorpions - The Millennium Collection (1999)

Posted By: v3122
Scorpions - The Millennium Collection (1999)

Scorpions - The Millennium Collection (1999)
EAC | Flac(Image) + Cue + Log & MP3 CBR 320Kbps
EMI, 0 7243 523351 2 1 | ~ 567 or 205 Mb | Scans
Hard Rock

~ Featuring 17 of their best hit singles: You And I; Still Loving You; Holiday; Rock You Like A Hurricane; Is There Anybody There?; Love Is Blind … ~

Scorpions - The Millennium Collection (1999)


Scorpions - The Millennium Collection (1999):

Scorpions - The Millennium Collection (1999)

Tracklist:

01. You And I (4:18)
02. Still Loving You (6:27)
03. Holiday (6:22)
04. Rock You Like A Hurricane (4:12)
05. Is There Anybody There? (4:19)
06. Love Is Blind (3:52)
07. Walking On The Edge (5:08)
08. Always Somewhere (4:56)
09. Can't Live Without You (3:47)
10. No One Like You (3:57)
11. Blackout (3:49)
12. I'm Leaving You (4:17)
13. I'm Going Mad (4:52)
14. When The Smoke Is Going Down (3:50)
15. Send Me An Angel (4:34)
16. Wind Of Change (5:11)
17. Under The Same Sun (4:53)

Exact Audio Copy V0.99 prebeta 5 from 4. May 2009

EAC extraction logfile from 26. August 2010, 17:33

Scorpions / The Millennium Collection

Used drive : ASUS DRW-1814BL Adapter: 0 ID: 1

Read mode : Secure
Utilize accurate stream : Yes
Defeat audio cache : Yes
Make use of C2 pointers : No

Read offset correction : 6
Overread into Lead-In and Lead-Out : No
Fill up missing offset samples with silence : Yes
Delete leading and trailing silent blocks : No
Null samples used in CRC calculations : Yes
Used interface : Native Win32 interface for Win NT & 2000
Gap handling : Appended to previous track

Used output format : User Defined Encoder
Selected bitrate : 128 kBit/s
Quality : High
Add ID3 tag : No
Command line compressor : C:\Program Files\Exact Audio Copy\FLAC\FLAC.EXE
Additional command line options : -8 -V -T "ARTIST=%a" -T "TITLE=%t" -T "ALBUM=%g" -T "DATE=%y" -T "TRACKNUMBER=%n" -T "TOTALTRACKS=%x" -T "GENRE=%m" -T "ALBUM ARTIST=%v" -T "ALBUMARTIST=%v" -T "COMMENT=EAC V0.99 prebeta 5, Secure Mode, Test & Copy, Accurat


TOC of the extracted CD

Track | Start | Length | Start sector | End sector
––––––––––––––––––––––––––––-
1 | 0:00.00 | 4:20.26 | 0 | 19525
2 | 4:20.26 | 6:28.09 | 19526 | 48634
3 | 10:48.35 | 6:23.27 | 48635 | 77386
4 | 17:11.62 | 4:14.33 | 77387 | 96469
5 | 21:26.20 | 4:19.71 | 96470 | 115965
6 | 25:46.16 | 3:53.69 | 115966 | 133509
7 | 29:40.10 | 5:08.38 | 133510 | 156647
8 | 34:48.48 | 4:56.72 | 156648 | 178919
9 | 39:45.45 | 3:47.60 | 178920 | 196004
10 | 43:33.30 | 3:58.08 | 196005 | 213862
11 | 47:31.38 | 3:50.41 | 213863 | 231153
12 | 51:22.04 | 4:17.62 | 231154 | 250490
13 | 55:39.66 | 4:53.51 | 250491 | 272516
14 | 60:33.42 | 3:50.64 | 272517 | 289830
15 | 64:24.31 | 4:34.08 | 289831 | 310388
16 | 68:58.39 | 5:14.12 | 310389 | 333950
17 | 74:12.51 | 4:54.63 | 333951 | 356063


Track 1

Filename E:\ANGELA\Scorpions - The Millennium Collection (1999) [FLAC]\01 - You And I.wav

Pre-gap length 0:00:02.00

Peak level 89.2 %
Track quality 99.9 %
Test CRC 09A7BEDF
Copy CRC 09A7BEDF
Track not present in AccurateRip database
Copy OK

Track 2

Filename E:\ANGELA\Scorpions - The Millennium Collection (1999) [FLAC]\02 - Still Loving You.wav

Peak level 93.9 %
Track quality 100.0 %
Test CRC 84E56DFD
Copy CRC 84E56DFD
Track not present in AccurateRip database
Copy OK

Track 3

Filename E:\ANGELA\Scorpions - The Millennium Collection (1999) [FLAC]\03 - Holiday.wav

Peak level 93.9 %
Track quality 100.0 %
Test CRC 82CD849B
Copy CRC 82CD849B
Track not present in AccurateRip database
Copy OK

Track 4

Filename E:\ANGELA\Scorpions - The Millennium Collection (1999) [FLAC]\04 - Rock You Like A Hurricane.wav

Peak level 93.9 %
Track quality 100.0 %
Test CRC 05BDEFD8
Copy CRC 05BDEFD8
Track not present in AccurateRip database
Copy OK

Track 5

Filename E:\ANGELA\Scorpions - The Millennium Collection (1999) [FLAC]\05 - Is There Anybody There .wav

Peak level 93.9 %
Track quality 100.0 %
Test CRC 5F969F2D
Copy CRC 5F969F2D
Track not present in AccurateRip database
Copy OK

Track 6

Filename E:\ANGELA\Scorpions - The Millennium Collection (1999) [FLAC]\06 - Love Is Blind.wav

Peak level 93.9 %
Track quality 100.0 %
Test CRC C5516BB7
Copy CRC C5516BB7
Track not present in AccurateRip database
Copy OK

Track 7

Filename E:\ANGELA\Scorpions - The Millennium Collection (1999) [FLAC]\07 - Walking On The Edge.wav

Peak level 93.9 %
Track quality 100.0 %
Test CRC 5D3E96E5
Copy CRC 5D3E96E5
Track not present in AccurateRip database
Copy OK

Track 8

Filename E:\ANGELA\Scorpions - The Millennium Collection (1999) [FLAC]\08 - Always Somewhere.wav

Peak level 93.9 %
Track quality 100.0 %
Test CRC E1E56F2C
Copy CRC E1E56F2C
Track not present in AccurateRip database
Copy OK

Track 9

Filename E:\ANGELA\Scorpions - The Millennium Collection (1999) [FLAC]\09 - Can't Live Without You.wav

Peak level 93.9 %
Track quality 99.9 %
Test CRC 67EE4F4B
Copy CRC 67EE4F4B
Track not present in AccurateRip database
Copy OK

Track 10

Filename E:\ANGELA\Scorpions - The Millennium Collection (1999) [FLAC]\10 - No One Like You.wav

Peak level 93.9 %
Track quality 100.0 %
Test CRC 48B7C8BF
Copy CRC 48B7C8BF
Track not present in AccurateRip database
Copy OK

Track 11

Filename E:\ANGELA\Scorpions - The Millennium Collection (1999) [FLAC]\11 - Blackout.wav

Peak level 93.9 %
Track quality 100.0 %
Test CRC A19F3D02
Copy CRC A19F3D02
Track not present in AccurateRip database
Copy OK

Track 12

Filename E:\ANGELA\Scorpions - The Millennium Collection (1999) [FLAC]\12 - I'm Leaving You.wav

Peak level 93.9 %
Track quality 100.0 %
Test CRC 65FB034F
Copy CRC 65FB034F
Track not present in AccurateRip database
Copy OK

Track 13

Filename E:\ANGELA\Scorpions - The Millennium Collection (1999) [FLAC]\13 - I'm Going Mad.wav

Peak level 85.5 %
Track quality 100.0 %
Test CRC 7E2F9081
Copy CRC 7E2F9081
Track not present in AccurateRip database
Copy OK

Track 14

Filename E:\ANGELA\Scorpions - The Millennium Collection (1999) [FLAC]\14 - When The Smoke Is Going Down.wav

Peak level 93.9 %
Track quality 100.0 %
Test CRC 03F25D96
Copy CRC 03F25D96
Track not present in AccurateRip database
Copy OK

Track 15

Filename E:\ANGELA\Scorpions - The Millennium Collection (1999) [FLAC]\15 - Send Me An Angel.wav

Peak level 93.9 %
Track quality 100.0 %
Test CRC 0BD52523
Copy CRC 0BD52523
Track not present in AccurateRip database
Copy OK

Track 16

Filename E:\ANGELA\Scorpions - The Millennium Collection (1999) [FLAC]\16 - Wind Of Change.wav

Peak level 93.9 %
Track quality 99.9 %
Test CRC 7B738648
Copy CRC 7B738648
Track not present in AccurateRip database
Copy OK

Track 17

Filename E:\ANGELA\Scorpions - The Millennium Collection (1999) [FLAC]\17 - Under The Same Sun.wav

Peak level 93.9 %
Track quality 100.0 %
Test CRC 79E524B2
Copy CRC 79E524B2
Track not present in AccurateRip database
Copy OK


None of the tracks are present in the AccurateRip database

No errors occurred

End of status report

foobar2000 1.2.9 / Dynamic Range Meter 1.1.1
log date: 2015-06-28 13:49:36

––––––––––––––––––––––––––––––––––––––––
Analyzed: Scorpions / The Millennium Collection
––––––––––––––––––––––––––––––––––––––––

DR Peak RMS Duration Track
––––––––––––––––––––––––––––––––––––––––
DR9 -0.99 dB -12.03 dB 4:20 01-You And I
DR9 -0.54 dB -12.40 dB 6:28 02-Still Loving You
DR10 -0.54 dB -16.00 dB 6:23 03-Holiday
DR9 -0.54 dB -10.41 dB 4:14 04-Rock You Like A Hurricane
DR10 -0.55 dB -12.11 dB 4:20 05-Is There Anybody There?
DR9 -0.54 dB -10.86 dB 3:54 06-Love Is Blind
DR10 -0.54 dB -12.95 dB 5:09 07-Walking On The Edge
DR9 -0.54 dB -11.29 dB 4:57 08-Always Somewhere
DR10 -0.54 dB -11.05 dB 3:48 09-Can't Live Without You
DR10 -0.54 dB -12.07 dB 3:58 10-No One Like You
DR9 -0.54 dB -10.74 dB 3:51 11-Blackout
DR9 -0.54 dB -10.24 dB 4:18 12-I'm Leaving You
DR8 -1.35 dB -11.25 dB 4:54 13-I'm Going Mad
DR11 -0.54 dB -13.10 dB 3:51 14-When The Smoke Is Going Down
DR11 -0.55 dB -13.23 dB 4:34 15-Send Me An Angel
DR10 -0.54 dB -13.29 dB 5:14 16-Wind Of Change
DR9 -0.54 dB -11.28 dB 4:55 17-Under The Same Sun
––––––––––––––––––––––––––––––––––––––––

Number of tracks: 17
Official DR value: DR10

Samplerate: 44100 Hz
Channels: 2
Bits per sample: 16
Bitrate: 940 kbps
Codec: FLAC

[CUETools log; Date: 28.06.2015 13:49:47; Version: 2.1.4]
[CTDB TOCID: Kl7eRmYpW_bIjXdea5XmdJUkxDs-] disk not present in database.
[AccurateRip ID: 003211af-02720c62-f0128b11] found.
Track [ CRC | V2 ] Status
01 [9744d819|fe9c1039] (1+0/1) Accurately ripped
02 [516b2120|d048d607] (1+0/1) Accurately ripped
03 [fb2a0aa4|5a9c274f] (1+0/1) Accurately ripped
04 [568e7ff3|0756c3ab] (1+0/1) Accurately ripped
05 [c4171bdc|f7001533] (1+0/1) Accurately ripped
06 [8a2e95f2|d85f2c9b] (1+0/1) Accurately ripped
07 [3463aecd|6d7d0851] (1+0/1) Accurately ripped
08 [9e449c12|5d786d17] (1+0/1) Accurately ripped
09 [8fa1a1f7|21c8a53c] (1+0/1) Accurately ripped
10 [c174aa07|5816a74b] (1+0/1) Accurately ripped
11 [9559c012|382c345d] (1+0/1) Accurately ripped
12 [f458e6d2|d7be2ca0] (1+0/1) Accurately ripped
13 [fcd9da45|746e021d] (1+0/1) Accurately ripped
14 [60ff2b93|2aa01eae] (1+0/1) Accurately ripped
15 [a91548ce|45ea0f1f] (1+0/1) Accurately ripped
16 [277a9a35|75aa587c] (1+0/1) Accurately ripped
17 [5a33cf6d|9f82088e] (1+0/1) Accurately ripped

Track Peak [ CRC32 ] [W/O NULL] [ LOG ]
– 93,9 [209CD28C] [6A67C777]
01 89,2 [09A7BEDF] [B140271D] CRC32
02 93,9 [84E56DFD] [B90CCF5C] CRC32
03 93,9 [82CD849B] [141CAAD1] CRC32
04 93,9 [05BDEFD8] [B3508552] CRC32
05 93,9 [5F969F2D] [C9D7E19B] CRC32
06 93,9 [C5516BB7] [96AC24BC] CRC32
07 93,9 [5D3E96E5] [2B1B2D06] CRC32
08 93,9 [E1E56F2C] [FA8D1EBD] CRC32
09 93,9 [67EE4F4B] [7739B7E3] CRC32
10 93,9 [48B7C8BF] [097E6752] CRC32
11 93,9 [A19F3D02] [48664770] CRC32
12 93,9 [65FB034F] [A098E249] CRC32
13 85,5 [7E2F9081] [F5822858] CRC32
14 93,9 [03F25D96] [DA42F547] CRC32
15 93,9 [0BD52523] [0C15ED65] CRC32
16 93,9 [7B738648] [827B9ECB] CRC32
17 93,9 [79E524B2] [BD3FE6D1] CRC32

Scorpions - The Millennium Collection (1999)

All thanks go to ANGELA

Scorpions in my Blog

Download Scorpions - The Millennium Collection (1999):