Tags
Language
Tags

Sergio Azzolini, L'Onda Armonica - Vivaldi: Concerti per fagotto IV (2015)

Posted By: ArlegZ
Sergio Azzolini, L'Onda Armonica - Vivaldi: Concerti per fagotto IV (2015)

Sergio Azzolini, L'Onda Armonica - Vivaldi: Concerti per fagotto IV (2015)
EAC | FLAC | Image (Cue & Log) ~ 282 Mb | Total time: 68:38 | Scans included
Classical | Label: Naïve | # OP 30551 | Recorded: 2014

The Vivaldi Edition is up to its astounding 54th volume with Concerti per Fagotto IV, and this collection introduces a selection of the finest Baroque works for bassoon. In a magical performance, the bassoonist Sergio Azzolini along with the L'Onda Armonica ensemble creates an indispensable recording that entices us into the pieces and compels us through each as if on a journey.

Performer:
Sergio Azzolini, bassoon
L'Onda Armonica

Track List:
Concerto RV 469 in Do Maggiore
01. Allegro
02. Largo
03. [Senza Indicazione di Tempo]
Concerto RV 491 in Fa Maggiore
04. Allegro Molto
05. Largo
06. [Senza Indicazione di Tempo]
Concerto RV 498 in La Minore
07. Allegro
08. Larghetto
09. Allegro
Concerto RV 492 in Sol Maggiore
10. Allegro non molto
11. Largo
12. Allegro
Concerto RV 500 in La Minore
13. Allegro
14. Largo
15. Allegro
Concerto RV 473 in Do Maggiore
16. Allegro non molto
17. Largo
18. Minuet


Exact Audio Copy V1.1 from 23. June 2015

EAC extraction logfile from 12. September 2016, 22:22

L'Onda Armonica, Sergio Azzolini / Vivaldi - Concerti per Fagotto IV

Used drive : HL-DT-STDVDRAM GSA-4040B Adapter: 1 ID: 2

Read mode : Secure
Utilize accurate stream : Yes
Defeat audio cache : Yes
Make use of C2 pointers : No

Read offset correction : 667
Overread into Lead-In and Lead-Out : No
Fill up missing offset samples with silence : Yes
Delete leading and trailing silent blocks : No
Null samples used in CRC calculations : Yes
Used interface : Native Win32 interface for Win NT & 2000

Used output format : User Defined Encoder
Selected bitrate : 896 kBit/s
Quality : High
Add ID3 tag : No
Command line compressor : F:\Program Files\Exact Audio Copy\Flac\flac.exe
Additional command line options : -8 -V -T "ARTIST=%artist%" -T "TITLE=%title%" -T "ALBUM=%albumtitle%" -T "DATE=%year%" -T "TRACKNUMBER=%tracknr%" -T "GENRE=%genre%" -T "PERFORMER=%albuminterpret%" -T "COMPOSER=%composer%" %haslyrics%–tag-from-file=LYRICS="%lyricsfile%"%haslyrics% -T "ALBUMARTIST=%albumartist%" -T "DISCNUMBER=%cdnumber%" -T "TOTALDISCS=%totalcds%" -T "TOTALTRACKS=%numtracks%" -T "COMMENT=%comment%" %source% -o %dest%


TOC of the extracted CD

Track | Start | Length | Start sector | End sector
––––––––––––––––––––––––––––-
1 | 0:00.00 | 3:45.33 | 0 | 16907
2 | 3:45.33 | 4:36.05 | 16908 | 37612
3 | 8:21.38 | 3:21.41 | 37613 | 52728
4 | 11:43.04 | 3:37.07 | 52729 | 69010
5 | 15:20.11 | 2:31.56 | 69011 | 80391
6 | 17:51.67 | 2:56.56 | 80392 | 93647
7 | 20:48.48 | 4:35.74 | 93648 | 114346
8 | 25:24.47 | 4:46.22 | 114347 | 135818
9 | 30:10.69 | 2:55.17 | 135819 | 148960
10 | 33:06.11 | 3:51.54 | 148961 | 166339
11 | 36:57.65 | 3:24.21 | 166340 | 181660
12 | 40:22.11 | 3:08.37 | 181661 | 195797
13 | 43:30.48 | 3:30.70 | 195798 | 211617
14 | 47:01.43 | 4:07.68 | 211618 | 230210
15 | 51:09.36 | 3:09.26 | 230211 | 244411
16 | 54:18.62 | 3:52.31 | 244412 | 261842
17 | 58:11.18 | 4:17.13 | 261843 | 281130
18 | 62:28.31 | 6:09.52 | 281131 | 308857


Range status and errors

Selected range

Filename Q:\Music\OP30551\L'Onda Armonica, Sergio Azzolini - Vivaldi - Concerti per Fagotto IV.wav

Peak level 88.9 %
Extraction speed 4.6 X
Range quality 99.9 %
Test CRC 11A3D05C
Copy CRC 11A3D05C
Copy OK

No errors occurred


AccurateRip summary

Track 1 accurately ripped (confidence 5) [BDDE4EB1] (AR v2)
Track 2 accurately ripped (confidence 5) [B08909AA] (AR v2)
Track 3 accurately ripped (confidence 5) [CCB8F1A9] (AR v2)
Track 4 accurately ripped (confidence 5) [DB533643] (AR v2)
Track 5 accurately ripped (confidence 5) [D33B4675] (AR v2)
Track 6 accurately ripped (confidence 5) [0CC2D6F1] (AR v2)
Track 7 accurately ripped (confidence 5) [0E4BC1B7] (AR v2)
Track 8 accurately ripped (confidence 5) [0CD30F60] (AR v2)
Track 9 accurately ripped (confidence 5) [9A1339FF] (AR v2)
Track 10 accurately ripped (confidence 5) [171C761C] (AR v2)
Track 11 accurately ripped (confidence 5) [3D804FE9] (AR v2)
Track 12 accurately ripped (confidence 5) [A2B403ED] (AR v2)
Track 13 accurately ripped (confidence 5) [CE258187] (AR v2)
Track 14 accurately ripped (confidence 5) [B85AF94B] (AR v2)
Track 15 accurately ripped (confidence 5) [8BAA50E8] (AR v2)
Track 16 accurately ripped (confidence 5) [66C10F3F] (AR v2)
Track 17 accurately ripped (confidence 5) [0BAE9493] (AR v2)
Track 18 accurately ripped (confidence 5) [E2FD1F02] (AR v2)

All tracks accurately ripped

End of status report

–– CUETools DB Plugin V2.1.6

[CTDB TOCID: 7mBPBuFqKCBFUvc2jc_KCmT1WUI-] found
Submit result: 7mBPBuFqKCBFUvc2jc_KCmT1WUI- has been confirmed
Track | CTDB Status
1 | (15/16) Accurately ripped
2 | (15/16) Accurately ripped
3 | (15/16) Accurately ripped
4 | (15/16) Accurately ripped
5 | (15/16) Accurately ripped
6 | (15/16) Accurately ripped
7 | (15/16) Accurately ripped
8 | (15/16) Accurately ripped
9 | (15/16) Accurately ripped
10 | (15/16) Accurately ripped
11 | (15/16) Accurately ripped
12 | (15/16) Accurately ripped
13 | (15/16) Accurately ripped
14 | (14/16) Accurately ripped
15 | (15/16) Accurately ripped
16 | (15/16) Accurately ripped
17 | (15/16) Accurately ripped
18 | (15/16) Accurately ripped


==== Log checksum C5C13A582CEF2C6039935A499EA9EB3E07D25493915A4F5D7E2367F882706DE6 ====

Sergio Azzolini, L'Onda Armonica - Vivaldi: Concerti per fagotto IV (2015)

Thanks to the original releaser