Tags
Language
Tags

Sezen Aksu - Düs Bahçeleri (1996)

Posted By: v3122
Sezen Aksu - Düs Bahçeleri (1996)

Sezen Aksu - Düs Bahçeleri (1996)
CDRip | Flac(Image) + Cue, no Log & MP3 CBR 320Kbps
Raks Müzik | ~ 306 or 112 Mb | Artwork(jpg) -> 5.97 Mb
Turkish Pop

Sezen Aksu (Turkish pronunciation: [seˈzen ˈaksu]; born Fatma Sezen Yıldırım; 13 July 1954) is a Turkish pop music singer, songwriter and producer who has sold over 40 million albums worldwide. Her nicknames include the "Queen of Turkish Pop" and Minik Serçe ("Little Sparrow").

Aksu's influence on Turkish pop and world music has continued since her debut in 1975, and has been reinforced by her patronage of and collaboration with many other musicians, including Sertab Erener, Şebnem Ferah, Aşkın Nur Yengi, Hande Yener, Yıldız Tilbe, Işın Karaca, Seden Gürel, Harun Kolçak and Levent Yüksel. Sezen Aksu is widely known as a successful songwriter. Her work with Tarkan resulted in continental hits like "Şımarık" and "Şıkıdım" and her collaboration with Goran Bregović widened her international audience. In 2010, NPR named her as one of the "50 Great Voices" of the world…

* * * * *

Düş Bahçeleri, Sezen Aksu'nun 14 Temmuz 1996 tarihinde çıkan on üçüncü stüdyo albümüdür. Albüm Sezen Aksu tarafından aranjörü, bestecisi ve yakın dostu Onno Tunç'a ithafen 1995 yılında yapılmıştır.Onno Tunç 14 Ocak 1996 tarihinde Bursa'dan Yalova’ya dönerken, bindiği özel uçağının Selimiye köyü yakınlarına düşmesi sonucu arkadaşı Hasan Kanik ile birlikte hayatını kaybetmiştir.

Sezen Aksu, Haziran 2008'de DMC etiketi ile "Deniz Yıldızı" adlı albümünü yayınlamış, “Sezen Aksu Kaybolmayan Yıllar Arşiv Serisi” arşivine ise "Düğün ve Cenaze" ve "Düş Bahçeleri" albümlerini de ilave etmiştir. 1996 yılında yayınlanan "Düş Bahçeleri" ve 1997 yılında yayınlanan "Düğün ve Cenaze" albümlerini yeniden satışa sunan sanatçı diğer albümlerindeki gibi yeni bir kartonet tasarım ve bilgi kitapçığı ile albümlerini arşivcilere sunmuştur…

~ wiki
Sezen Aksu - Düs Bahçeleri (1996):

Sezen Aksu - Düs Bahçeleri (1996)

Tracklist:

1. "Seni Yerler (Yeni şarkı)" (söz - müzik: Sezen Aksu)
02. "Yarası Saklım" (söz: Sezen Aksu, Yelda Karataş, müzik: Sezen Aksu)
03. "Bile Bile" (söz - müzik: Sezen Aksu)
04. "Kaçın Kurası" (söz - müzik: Sezen Aksu)
05. "Le Le Le (Yeni şarkı)" (söz - müzik: Sezen Aksu)
06. "Yalnızlık Senfonisi" (söz - müzik: Sezen Aksu)
07. "Düş Bahçeleri" (söz - müzik: Onno Tunç, Sezen Aksu)
08. "İki Gözüm (Gel Barışalım Artık)" (söz - müzik: Sezen Aksu)
09. "Zalim" (söz: Sezen Aksu, müzik: Eldar Mansurov)
10. "Onursuz Olmasın Aşk" (söz: Sezen Aksu, müzik: Uzay Hepari, Sezen Aksu)
11. "Rakkas (Remix 1)" (söz: Sezen Aksu, Yelda Karataş, müzik: Atilla Özdemiroğlu)

[CUETools log; Date: 16.09.2020 15:07:17; Version: 2.1.4]
[AccurateRip ID: 0013d225-00ab138f-8c0b180b] found.
Track [ CRC | V2 ] Status
01 [8f913e1c|4df6639c] (00+00/11) No match
02 [d4e3baf0|d1bd5057] (00+00/11) No match
03 [744e4a7d|415ba5a5] (00+00/10) No match
04 [9debc44b|6da98063] (00+00/10) No match
05 [713c72e9|438d166a] (00+00/10) No match
06 [74aacc1c|8460d9e8] (00+00/10) No match
07 [dbc3090a|e3fcbd9f] (00+00/10) No match
08 [d4d929e2|93ad9d10] (00+00/10) No match
09 [ba6d346b|529650fc] (00+00/10) No match
10 [c860784e|aa267460] (00+00/11) No match
11 [73e5eb8e|cdd844e1] (00+00/11) No match
Offsetted by 667:
01 [e5647735] (07/11) Accurately ripped
02 [07d8b76d] (07/11) Accurately ripped
03 [d8f102ec] (06/10) Accurately ripped
04 [12038b2e] (06/10) Accurately ripped
05 [146c8940] (06/10) Accurately ripped
06 [8bb8f58c] (06/10) Accurately ripped
07 [16d4a8e6] (06/10) Accurately ripped
08 [15e7b303] (06/10) Accurately ripped
09 [7a82ceb8] (06/10) Accurately ripped
10 [223010db] (06/11) Accurately ripped
11 [97942c6b] (06/11) Accurately ripped

Track Peak [ CRC32 ] [W/O NULL]
– 99,9 [5EBE64E1] [B6FD12B4]
01 93,4 [B2085E89] [DB54191A]
02 99,9 [1B514351] [5770AAC5]
03 99,9 [91CD0660] [80C3CD9D]
04 99,9 [F4996954] [45B91B38]
05 99,9 [58EE4CFB] [C86CE2E9]
06 99,9 [D4C47610] [33EC4FDC]
07 98,8 [9E0829F3] [69950F66]
08 99,9 [D0552145] [2016FB19]
09 99,9 [AB891A44] [0A902F5F]
10 99,9 [2ED2B51A] [B9EF712C]
11 99,9 [D2467EAA] [F29771AC]


Sezen Aksu - Düs Bahçeleri (1996)

All thanks go to the original releaser

Sezen Aksu in my Blog

Download Sezen Aksu - Düs Bahçeleri (1996):