Tags
Language
Tags
June 2024
Su Mo Tu We Th Fr Sa
26 27 28 29 30 31 1
2 3 4 5 6 7 8
9 10 11 12 13 14 15
16 17 18 19 20 21 22
23 24 25 26 27 28 29
30 1 2 3 4 5 6

Youn Sun Nah - She Moves On (2017)

Posted By: SERTiL
Youn Sun Nah - She Moves On (2017)

Youn Sun Nah - She Moves On
XLD Rip | FLAC (tracks)+cue, log, artwork | 50:38 min | 280 MB
Label: ACT Music - ACT 9037-2 | Tracks: 11 | Rls.date: 2017
Jazz, Vocal Jazz

Korean singer Youn Sun Nah is one of the most brilliantly successful artists of our time in jazz (or more accurately, jazz-related music). In her native country she is a major star. Her love of chanson took her to France, the country where her meteoric rise and her huge success (150,000+ sales of her last two albums) all across Europe took wing. Youn s voice is instantly recognizable, charismatically urgent and infinitely adaptable and with 'She Moves On' this chameleonic and delightful artist has reinvented herself once again. On the new album Youn Sun Nah now has concentrated her attention on jazz and rock/pop music from North America. In order to be completely, authentically within this musical world, she recorded the album in New York, with a new band consisting of some of the most interesting and multi-faceted characters in the city. The most important of these new partners-in-crime is the producer, pianist and keyboard player Jamie Saft. He has until now mainly been known for his work with experimenters and avant-garde figures such as John Zorn, Marc Ribot, Cuong Vu and Chris Speed, but here he reveals himself to be a highly sensitive accompanist, capable of the most subtle variation. As producer he has created a warm sound for the album, redolent of the greats of the past but at the same time thoroughly contemporary.

Youn Sun Nah - She Moves On (2017)


TRACKLIST
01. Traveller 03:43
02. Teach the Gifted Children 04:13
03. Too Late 05:04
04. She Moves On 04:45
05. No Other Name 02:45
06. The Dawntreader 05:30
07. Drifting 04:38
08. Black Is the Color of My True Love's Hair 04:14
09. A Sailor's Life 08:42
10. Fools Rush In 04:04
11. Evening Star 03:00

PERSONNEL
Youn Sun Nah - vocals, kalimba
Jamie Saft - piano, keyboards
Brad Jones - acoustic bass
Dan Rieser - drums
Marc Ribot - electric & acoustic guitars on "2,4,5,7,11"

Special Guests on "3":
Maxim Moston - Violin, String Arrangement
Antoine Silverman - Violin
Hiroko Taguchi - Viola
Anja Wood - Violoncello

X Lossless Decoder version 20161007 (149.3)

XLD extraction logfile from 2017-05-29 20:05:00 +0200

Youn Sun Nah / She Moves On

Used drive : TSSTcorp CDDVDW SH-S223L (revision SB02)
Media type : Pressed CD

Ripper mode : XLD Secure Ripper
Disable audio cache : OK for the drive with a cache less than 1375KiB
Make use of C2 pointers : NO
Read offset correction : 6
Max retry count : 100
Gap status : Analyzed, Appended (except HTOA)

TOC of the extracted CD
Track | Start | Length | Start sector | End sector
––––––––––––––––––––––––––––-
1 | 00:00:00 | 03:43:65 | 0 | 16789
2 | 03:43:65 | 04:13:29 | 16790 | 35793
3 | 07:57:19 | 05:04:07 | 35794 | 58600
4 | 13:01:26 | 04:45:09 | 58601 | 79984
5 | 17:46:35 | 02:45:59 | 79985 | 92418
6 | 20:32:19 | 05:30:17 | 92419 | 117185
7 | 26:02:36 | 04:38:55 | 117186 | 138090
8 | 30:41:16 | 04:14:65 | 138091 | 157205
9 | 34:56:06 | 08:42:55 | 157206 | 196410
10 | 43:38:61 | 04:04:59 | 196411 | 214769
11 | 47:43:45 | 03:00:63 | 214770 | 228332

AccurateRip Summary
Disc not found in AccurateRip DB.

All Tracks
Album gain : -4.88 dB
Peak : 0.992279
Statistics
Read error : 0
Jitter error (maybe fixed) : 0
Retry sector count : 0
Damaged sector count : 0

Track 01
Filename : /FLAC Rips/Youn Sun Nah - 2017 - She Moves On [FLAC]/01 - Traveller.flac
Pre-gap length : 00:02:00

Track gain : -5.28 dB
Peak : 0.939941
CRC32 hash (test run) : 9AE4C5B4
CRC32 hash : 9AE4C5B4
CRC32 hash (skip zero) : 9735C213
AccurateRip v1 signature : 5D873AFA
AccurateRip v2 signature : DEB4AA79
->Track not present in AccurateRip database.
Statistics
Read error : 0
Jitter error (maybe fixed) : 0
Retry sector count : 0
Damaged sector count : 0

Track 02
Filename : /FLAC Rips/Youn Sun Nah - 2017 - She Moves On [FLAC]/02 - Teach The Gifted Children.flac

Track gain : -5.76 dB
Peak : 0.936890
CRC32 hash (test run) : 7C95F99F
CRC32 hash : 7C95F99F
CRC32 hash (skip zero) : 4338C9B5
AccurateRip v1 signature : A4056A59
AccurateRip v2 signature : 99CA3C80
->Track not present in AccurateRip database.
Statistics
Read error : 0
Jitter error (maybe fixed) : 0
Retry sector count : 0
Damaged sector count : 0

Track 03
Filename : /FLAC Rips/Youn Sun Nah - 2017 - She Moves On [FLAC]/03 - Too Late.flac

Track gain : -3.94 dB
Peak : 0.902161
CRC32 hash (test run) : DF097E66
CRC32 hash : DF097E66
CRC32 hash (skip zero) : F9CFA451
AccurateRip v1 signature : 22CE1F05
AccurateRip v2 signature : 067094B7
->Track not present in AccurateRip database.
Statistics
Read error : 0
Jitter error (maybe fixed) : 0
Retry sector count : 0
Damaged sector count : 0

Track 04
Filename : /FLAC Rips/Youn Sun Nah - 2017 - She Moves On [FLAC]/04 - She Moves On.flac

Track gain : -6.26 dB
Peak : 0.992279
CRC32 hash (test run) : 7D57DCD8
CRC32 hash : 7D57DCD8
CRC32 hash (skip zero) : ED1E2571
AccurateRip v1 signature : A6C016CB
AccurateRip v2 signature : A401DC55
->Track not present in AccurateRip database.
Statistics
Read error : 0
Jitter error (maybe fixed) : 0
Retry sector count : 0
Damaged sector count : 0

Track 05
Filename : /FLAC Rips/Youn Sun Nah - 2017 - She Moves On [FLAC]/05 - No Other Name.flac

Track gain : -3.34 dB
Peak : 0.861267
CRC32 hash (test run) : 9E24A4D9
CRC32 hash : 9E24A4D9
CRC32 hash (skip zero) : BBD9082A
AccurateRip v1 signature : AA2C588F
AccurateRip v2 signature : 9328DC37
->Track not present in AccurateRip database.
Statistics
Read error : 0
Jitter error (maybe fixed) : 0
Retry sector count : 0
Damaged sector count : 0

Track 06
Filename : /FLAC Rips/Youn Sun Nah - 2017 - She Moves On [FLAC]/06 - The Dawntreader.flac

Track gain : -3.73 dB
Peak : 0.929688
CRC32 hash (test run) : 9BFF40E4
CRC32 hash : 9BFF40E4
CRC32 hash (skip zero) : EF410EC3
AccurateRip v1 signature : 15283584
AccurateRip v2 signature : E0D054FF
->Track not present in AccurateRip database.
Statistics
Read error : 0
Jitter error (maybe fixed) : 0
Retry sector count : 0
Damaged sector count : 0

Track 07
Filename : /FLAC Rips/Youn Sun Nah - 2017 - She Moves On [FLAC]/07 - Drifting.flac

Track gain : -5.21 dB
Peak : 0.950043
CRC32 hash (test run) : 37579307
CRC32 hash : 37579307
CRC32 hash (skip zero) : F4F62FE2
AccurateRip v1 signature : 9A6D8923
AccurateRip v2 signature : 32F3CB9D
->Track not present in AccurateRip database.
Statistics
Read error : 0
Jitter error (maybe fixed) : 0
Retry sector count : 0
Damaged sector count : 0

Track 08
Filename : /FLAC Rips/Youn Sun Nah - 2017 - She Moves On [FLAC]/08 - Black Is The Colour Of My True Love's Hair.flac

Track gain : -3.82 dB
Peak : 0.874756
CRC32 hash (test run) : 4A289544
CRC32 hash : 4A289544
CRC32 hash (skip zero) : 6F129C94
AccurateRip v1 signature : F57E76B3
AccurateRip v2 signature : C98E3213
->Track not present in AccurateRip database.
Statistics
Read error : 0
Jitter error (maybe fixed) : 0
Retry sector count : 0
Damaged sector count : 0

Track 09
Filename : /FLAC Rips/Youn Sun Nah - 2017 - She Moves On [FLAC]/09 - A Sailor's Life.flac

Track gain : -3.86 dB
Peak : 0.938446
CRC32 hash (test run) : 076883BB
CRC32 hash : 076883BB
CRC32 hash (skip zero) : 1B8F5E6A
AccurateRip v1 signature : FBB2A9EA
AccurateRip v2 signature : F0168056
->Track not present in AccurateRip database.
Statistics
Read error : 0
Jitter error (maybe fixed) : 0
Retry sector count : 0
Damaged sector count : 0

Track 10
Filename : /FLAC Rips/Youn Sun Nah - 2017 - She Moves On [FLAC]/10 - Fools Rush In.flac

Track gain : -4.84 dB
Peak : 0.895233
CRC32 hash (test run) : 77CB63CD
CRC32 hash : 77CB63CD
CRC32 hash (skip zero) : 403AE4D6
AccurateRip v1 signature : C727C482
AccurateRip v2 signature : 819BE5BF
->Track not present in AccurateRip database.
Statistics
Read error : 0
Jitter error (maybe fixed) : 0
Retry sector count : 0
Damaged sector count : 0

Track 11
Filename : /FLAC Rips/Youn Sun Nah - 2017 - She Moves On [FLAC]/11 - Evening Star.flac

Track gain : -4.14 dB
Peak : 0.882965
CRC32 hash (test run) : B6EB7E9D
CRC32 hash : B6EB7E9D
CRC32 hash (skip zero) : 2E79485A
AccurateRip v1 signature : 3CC3F1EB
AccurateRip v2 signature : BA9B0240
->Track not present in AccurateRip database.
Statistics
Read error : 0
Jitter error (maybe fixed) : 0
Retry sector count : 0
Damaged sector count : 0

No errors occurred

End of status report

––-BEGIN XLD SIGNATURE––-
rwcsVIh.DumrzFkcb.i88IE2L1Nhf2HnUNmSphaJHgE0nkeU3J98F0eokCiuLp_yy.45a0EW.itJYx6BUtibGB7.TB6KwJRAf9QwzpK
––-END XLD SIGNATURE––-


Youn Sun Nah - She Moves On (2017)


Thanks to the Original customer.