Subcategories

Sheryl Crow - Tuesday Night Music Club (1993) [Japanese SHM-CD]

Posted By: v3122
Sheryl Crow - Tuesday Night Music Club (1993) [Japanese SHM-CD]

Sheryl Crow - Tuesday Night Music Club (1993)
EAC | Flac(Image) + Cue + Log & MP3 CBR 320Kbps
2008 | Universal International, UICY-91208 | ~ 297 or 118 Mb | Scans(jpg) -> 8.23 Mb
Pop Rock, Alternative Rock

Sheryl Crow earned her recording contract through hard work, gigging as a backing vocalist for everyone from Don Henley to Michael Jackson before entering the studio with Hugh Padgham to record her debut album. As it turned out, things didn't go entirely as planned. Instead of adhering to her rock & roll roots, the record was a slick set of contemporary pop, relying heavily on ballads. Upon hearing the completed album, Crow convinced A&M not to release the album, choosing to cut a new record with producer Bill Bottrell. Along with several Los Angeles-based songwriters and producers, including David Baerwald, David Ricketts, and Brian McLeod, Bottrell was part of a collective dubbed "the Tuesday Night Music Club." Every Tuesday, the group would get together, drink beer, jam, and write songs. Crow became part of the Club and, within a few months, she decided to craft her debut album around the songs and spirit of the collective. It was, for the most part, an inspired idea, since Tuesday Night Music Club has a loose, ramshackle charm that her unreleased debut lacked. At its best – the opening quartet of "Run, Baby, Run," "Leaving Las Vegas," "Strong Enough," and "Can't Cry Anymore," plus the deceptively infectious "All I Wanna Do" – are remarkable testaments to their collaboration, proving that roots rock can sound contemporary and have humor. That same spirit, however, also resulted in some half-finished songs, and the preponderance of those tracks make Tuesday Night Music Club better in memory than it is in practice. Still, even with the weaker moments, Crow manages to create an identity for herself – a classic rocker at heart but with enough smarts to stay contemporary. And that's the lasting impression Tuesday Night Music Club leaves.

by Stephen Thomas Erlewine, allmusic
Sheryl Crow - Tuesday Night Music Club (1993):

Sheryl Crow - Tuesday Night Music Club (1993) [Japanese SHM-CD]

Tracklist:

01. Run, Baby, Run 04:53
02. Leaving Las Vegas 05:09
03. Strong Enough 03:10
04. Can't Cry Anymore 03:41
05. Solidify 04:08
06. The Na-Na Song 03:13
07. No One Said It Would Be Easy 05:29
08. What I Can Do For You 04:14
09. All I Wanna Do 04:33
10. We Do What We Can 05:39
11. I Shall Believe 05:35

Exact Audio Copy V0.99 prebeta 5 from 4. May 2009

EAC extraction logfile from 17. January 2010, 6:22

Sheryl Crow / Tuesday Night Music Club

Used drive : SAMSUNG CD-ROM SC-148A Adapter: 1 ID: 1

Read mode : Secure
Utilize accurate stream : Yes
Defeat audio cache : Yes
Make use of C2 pointers : No

Read offset correction : 12
Overread into Lead-In and Lead-Out : Yes
Fill up missing offset samples with silence : Yes
Delete leading and trailing silent blocks : No
Null samples used in CRC calculations : Yes
Used interface : Native Win32 interface for Win NT & 2000

Used output format : Internal WAV Routines
Sample format : 44.100 Hz; 16 Bit; Stereo


TOC of the extracted CD

Track | Start | Length | Start sector | End sector
––––––––––––––––––––––––––––-
1 | 0:00.00 | 4:53.25 | 0 | 21999
2 | 4:53.25 | 5:09.70 | 22000 | 45244
3 | 10:03.20 | 3:10.18 | 45245 | 59512
4 | 13:13.38 | 3:41.30 | 59513 | 76117
5 | 16:54.68 | 4:08.47 | 76118 | 94764
6 | 21:03.40 | 3:13.08 | 94765 | 109247
7 | 24:16.48 | 5:29.12 | 109248 | 133934
8 | 29:45.60 | 4:14.48 | 133935 | 153032
9 | 34:00.33 | 4:33.72 | 153033 | 173579
10 | 38:34.30 | 5:39.25 | 173580 | 199029
11 | 44:13.55 | 5:35.00 | 199030 | 224154


Range status and errors

Selected range

Filename C:\Sheryl Crow - 1993 - Tuesday Night Music Club\Sheryl Crow - 1993 - Tuesday Night Music Club.wav

Peak level 100.0 %
Range quality 99.9 %
Test CRC C8656FA3
Copy CRC C8656FA3
Copy OK

No errors occurred


AccurateRip summary

Track 1 not present in database
Track 2 not present in database
Track 3 not present in database
Track 4 not present in database
Track 5 not present in database
Track 6 not present in database
Track 7 not present in database
Track 8 not present in database
Track 9 not present in database
Track 10 not present in database
Track 11 not present in database

None of the tracks are present in the AccurateRip database

End of status report


[CUETools log; Date: 06.09.2017 15:03:23; Version: 2.1.5]
[AccurateRip ID: 0013b17e-00aad44f-970bac0b] found.
Track [ CRC | V2 ] Status
01 [cabba6e6|dfdcf011] (0+4/4) Accurately ripped
02 [85ed970a|347195a7] (0+4/4) Accurately ripped
03 [875d2a75|b934ab12] (0+4/4) Accurately ripped
04 [b9e4d3b9|c3b1070b] (0+4/4) Accurately ripped
05 [06a54bf9|3a70d438] (0+4/4) Accurately ripped
06 [d6ca2053|a3612f95] (0+4/4) Accurately ripped
07 [bf95455c|75eef0ca] (0+4/4) Accurately ripped
08 [d1be5b62|5e93fa15] (0+4/4) Accurately ripped
09 [4fd10cfc|f46fa573] (0+4/4) Accurately ripped
10 [3a24411d|d171ea0b] (0+4/4) Accurately ripped
11 [4a491367|3e3e527e] (0+4/4) Accurately ripped

Track Peak [ CRC32 ] [W/O NULL] [ LOG ]
– 100,0 [C8656FA3] [5F289023] CRC32
01 96,7 [01AC078F] [F02F2CFB]
02 98,3 [1248AFD9] [59E14ED3]
03 79,0 [DCE6A8C2] [7F419F31]
04 99,5 [21E06CFB] [7164662C]
05 100,0 [3638E175] [EFDC8091]
06 100,0 [EF1E0753] [F6E6A700]
07 99,9 [6B3A9C5A] [9B381915]
08 100,0 [D097D634] [AE8E0322]
09 100,0 [232797AD] [767DC09B]
10 100,0 [1B28C53D] [020FC736]
11 87,1 [5A777B84] [D0805833]


Sheryl Crow - Tuesday Night Music Club (1993) [Japanese SHM-CD]

All thanks go to me6205

Sheryl Crow in my Blog

Download Sheryl Crow - Tuesday Night Music Club (1993):